Чудеса моря в 3D в 3Д / Wonders of the Sea 3D (Жан-Мишель Кусто, Жан-Жак Мантелло / Jean-Michel Cousteau, Jean-Jacques Mantello) [2017, документальный, видовой, BDRip] VO, Half OverUnder / Вертикальная анаморфная стереопара

Ответить на тему
 
Автор
Сообщение

Волк ®

Пол:

Стаж: 8 лет 5 месяцев

Сообщений: 777

Репутация: 310 [+] [-]

Откуда: Армения

Пост 29-Янв-2020 19:41

[Цитировать] 

Чудеса моря в 3D
Wonders of the Sea 3D
- Год выпуска: 2017
Страна: Великобритания, Франция (3D Entertainment Films Ltd., Conquistador Entertainment)
Жанр: документальный, видовой
Продолжительность: 01:24:19
Перевод: Любительский одноголосый закадровый (NoNamed) (перевод любительский - Ash61)
Режиссеры: Жан-Мишель Кусто, Жан-Жак Мантелло / Jean-Michel Cousteau, Jean-Jacques Mantello-В фильме снимались: Арнольд Шварценеггер, Селин Кусто, Фабьен Кусто, Жан-Мишель Кусто-Описание: Французский исследователь океана Жан-Мишель Кусто и его взрослые дети, вооруженные передовыми технологиями 3D, исследуют океан и узнают, что подвергает его риску.-Доп. инфо: Жан-Жак Мантелло и Жан-Мишель Кусто уже порадовали нас такими 3Д документалками, как: Чудеса океана 3D (2003), Акулы 3D (2004), Дельфины и киты 3D (2008), Большое путешествие вглубь океанов 3D (2009), Воздушные гонщики 3D (2012), Kenya 3D: Animal Kingdom (2013)-Премьера (мир): 20 мая 2017
Бюджет: $9 200 000

. .
-Качество: BDRip (by Ash61) [исх. - BD 3D Ita]
Контейнер: MKV
Формат 3D: Half OverUnder / Вертикальная анаморфная стереопара
Порядок ракурсов: левый ракурс первый-Видео: AVC / 1920х1080p / 23,976 fps / 21.0 Mbps
Аудио:
#1 - Русский / AC3 / 48 KHz / 5.1 ch / 640 Kbps (VO - NoNamed)
#2 - Английский / AC3 / 48 KHz / 5.1 ch / 640 Kbps (Original - BD 3D)
Субтитры (SRT):
Вшитые (softsub):
#1 - Русские Форсированные (включены по умолчанию)
#2 - Русские Полные [перевод любительский - Ash61]
#3 - Итальянские Full (BD 3D Ita)
Внешние (UTF-8):
#1 - Русские Форсированные (включены по умолчанию)

MediaInfo

General
Unique ID : 212211782259581602460168622912490536431 (0x9FA680AA6E0270F9B5D758BE28ED7DEF)
Complete name : J:\WondersOfTheSea(2017)3D-halfOU(Ash61)VO\WondersOfTheSea(2017)3D-halfOU(Ash61)VO.mkv
Format : Matroska
Format version : Version 2
File size : 13.1 GiB
Duration : 1h 24mn
Overall bit rate : 22.3 Mbps
Movie name : Чудеса моря в 3D / Wonders of the Sea 3D (2017) in 3D
Encoded date : UTC 2019-03-30 16:55:50
Writing application : mkvmerge v5.8.0 ('No Sleep / Pillow') built on Sep 2 2012 15:37:04
Writing library : libebml v1.2.3 + libmatroska v1.3.0
Video
ID : 1
Format : AVC
Format/Info : Advanced Video Codec
Format profile : High@L4.1
Format settings, CABAC : Yes
Format settings, ReFrames : 4 frames
Codec ID : V_MPEG4/ISO/AVC
Duration : 1h 24mn
Bit rate : 21.0 Mbps
Width : 1 920 pixels
Height : 1 080 pixels
Display aspect ratio : 16:9
Frame rate mode : Constant
Frame rate : 23.976 (24000/1001) fps
Color space : YUV
Chroma subsampling : 4:2:0
Bit depth : 8 bits
Scan type : Progressive
Bits/(Pixel*Frame) : 0.422
Stream size : 12.1 GiB (92%)
Title : BDRip by Ash61 (source - BD 3D Ita)
Writing library : x264 core 146 r2538 121396c
Encoding settings : cabac=1 / ref=4 / deblock=1:-3:-3 / analyse=0x3:0x113 / me=umh / subme=10 / psy=1 / psy_rd=1.00:0.00 / mixed_ref=1 / me_range=32 / chroma_me=1 / trellis=2 / 8x8dct=1 / cqm=0 / deadzone=21,11 / fast_pskip=0 / chroma_qp_offset=-2 / threads=12 / lookahead_threads=2 / sliced_threads=0 / nr=0 / decimate=0 / interlaced=0 / bluray_compat=0 / constrained_intra=0 / bframes=8 / b_pyramid=2 / b_adapt=2 / b_bias=0 / direct=3 / weightb=1 / open_gop=0 / weightp=2 / keyint=250 / keyint_min=23 / scenecut=40 / intra_refresh=0 / rc_lookahead=60 / rc=2pass / mbtree=0 / bitrate=21000 / ratetol=1.0 / qcomp=0.70 / qpmin=0 / qpmax=69 / qpstep=4 / cplxblur=20.0 / qblur=0.5 / vbv_maxrate=40000 / vbv_bufsize=30000 / nal_hrd=none / filler=0 / frame-packing=4 / ip_ratio=1.40 / pb_ratio=1.30 / aq=1:0.70
Language : English
Default : Yes
Forced : No
Audio #1
ID : 2
Format : AC-3
Format/Info : Audio Coding 3
Mode extension : CM (complete main)
Format settings, Endianness : Big
Codec ID : A_AC3
Duration : 1h 24mn
Bit rate mode : Constant
Bit rate : 640 Kbps
Channel(s) : 6 channels
Channel positions : Front: L C R, Side: L R, LFE
Sampling rate : 48.0 KHz
Frame rate : 31.250 fps (1536 spf)
Compression mode : Lossy
Stream size : 386 MiB (3%)
Title : Любительский одноголосый закадровый - NoNamed (перевод любительский - Ash61)
Language : Russian
Default : Yes
Forced : No
Audio #2
ID : 3
Format : AC-3
Format/Info : Audio Coding 3
Mode extension : CM (complete main)
Format settings, Endianness : Big
Codec ID : A_AC3
Duration : 1h 24mn
Bit rate mode : Constant
Bit rate : 640 Kbps
Channel(s) : 6 channels
Channel positions : Front: L C R, Side: L R, LFE
Sampling rate : 48.0 KHz
Frame rate : 31.250 fps (1536 spf)
Compression mode : Lossy
Stream size : 386 MiB (3%)
Title : Original
Language : English
Default : No
Forced : No
Text #1
ID : 4
Format : UTF-8
Codec ID : S_TEXT/UTF8
Codec ID/Info : UTF-8 Plain Text
Title : Форсированные
Language : Russian
Default : Yes
Forced : No
Text #2
ID : 5
Format : UTF-8
Codec ID : S_TEXT/UTF8
Codec ID/Info : UTF-8 Plain Text
Title : Полные [перевод любительский - Ash61]
Language : Russian
Default : No
Forced : No
Text #3
ID : 6
Format : UTF-8
Codec ID : S_TEXT/UTF8
Codec ID/Info : UTF-8 Plain Text
Title : Full
Language : Italian
Default : No
Forced : No
Menu
00:00:00.000 : :1
00:00:29.613 : :2
00:06:31.558 : :3
00:12:33.086 : :4
00:23:55.851 : :5
00:31:32.891 : :6
00:36:09.125 : :7
00:41:37.954 : :8
00:49:27.131 : :9
00:56:38.103 : :10
01:03:29.514 : :11
01:13:37.079 : :12
01:21:07.988 : :13

Для оценки 3Д - Анимированные скрины





















_________________
Мои раздачи
[Торрент-статистика]
[Профиль]  [ЛС] 
Показать сообщения:    
Ответить на тему

Текущее время: Сегодня 12:26

Часовой пояс: GMT + 4



Вы не можете начинать темы
Вы не можете отвечать на сообщения
Вы не можете редактировать свои сообщения
Вы не можете удалять свои сообщения
Вы не можете голосовать в опросах
Вы не можете прикреплять файлы к сообщениям
Вы не можете скачивать файлы