Звёздный путь: Пикар / Star Trek: Picard (Сезон 1 , Серия 1-4 из 10) (Кулпеппер, Джонатан Фрейкс) [2020, Фантастика, боевик, драма, приключения,WEB-DLRip 1080p] [LostFilm+SDI Media+AlexFilm+Eng]+[Subs Rus , ENG]

Ответить на тему
 
Автор
Сообщение

Враг Нароода ®

Пол:

Стаж: 2 года 1 месяц

Сообщений: 162

Репутация: 189 [+] [-]

Откуда: Красногорск

Пост 27-Янв-2020 12:42

[Цитировать] 

--Звёздный путь: Пикар / Star Trek: Picard (Сезон 1 , Серия 1-4 из 10) -- --Год выпуска: 2020
Выпущено: США , CBS Television Studios, Roddenberry Entertainment, Secret Hideout
Жанр: Фантастика, боевик, драма, приключения
Продолжительность: 00:44:00
Сезон:1
Серия:1-4
Количество серий в сезоне:10--Озвучка #1: Профессиональный многоголосый - LostFilm - Русский
Озвучка #2: Профессиональный многоголосый - SDI Media - Русский
Озвучка #3: Профессиональный многоголосый - AlexFilm - Русский
Озвучка #4: Профессиональный многоголосый -Английский - Оригинал
Субтитры: Russian , English, English SDH
--Релиз Без Рекламы --MDB 8.9 --Режиссеры:
Ханель М. Кулпеппер, Джонатан Фрейкс, Акива Голдсман--В ролях: Патрик Стюарт, Сантьяго Кабрера, Иза Брионес, Элисон Пилл, Гарри Тредэвэй, Мишель Херд, Ребекка Висоцки, Джейми МакШейн, Орла Брэйди-- Легендарный капитан Звездного флота, прекрасный стратег и проницательный дипломат Жан-Люк Пикар (Патрик Стюарт) давно ушел в отставку, оставив позади свои грандиозные успешные миссии, но не забыв горькие провалы. Двадцать лет он живет на пенсии на фамильном винограднике во Франции. Ближайшим другом из окружения старика для него становится верный пес по кличке Номер Один, но вовсе не потому, что с возрастом Жан-Люк превратился в невыносимого брюзгу. Просто все эти годы бывшего исследователя галактики мучают кошмары и угрызения совести из-за трагического происшествия на Ромуле и Марсе. Тогда синтетики, подобные Дейте (Брент Спайнер), взбунтовались, из-за чего погибли тысячи невинных. Что послужило причиной сбоя в их программе, никто толком не знает: вместо того чтобы разобраться в истоках бунта, Федерация просто запретила все синтетические формы жизни. Сам Пикар, прослуживший плечом к плечу с самоотверженным Дейтой, отдавшим жизнь за своего капитана, такого вынести не мог и в качестве жеста несогласия покинул свой пост. Укрывшись на семейной вилле от любопытных репортеров, он пытается забыть те ужасные события, вот только сделать это ему не дает загадочная девушка Даж (Иза Брионес). Она находит Пикара, сообщает ему, что за ней объявлена охота и помочь ей может только он. Очень скоро Жан-Люк понимает, что его встреча с Даж не случайна — она тесно связана с его собственным прошлым, а в ее происхождении кроется ключ к терзающей капитана тайне. Пикар соглашается помочь проблемной девушке и вместе со свеженабранной командой вновь отправляется туда, где не ступала нога человека…-- --Качество :WEB-DLRip - HEVC 10bit - 1080p
Формат: MKV
Видео кодек: H265
Видео: 4177Кбит/сек,1920х800(2.40.1),в 23.976кадр/сек, HEVC (Main10@L5.1@Main)--Аудио Кодек:AC3
Аудио #1: MVO LostFilm @DD5.1 AC3, 640 Kbps, 48.0 KHz, 6 ch- LostFilm -Русский
Аудио #2: MVO SDI Media @DD5.1 E- AC3, 640 Kbps, 48.0 KHz, 6 ch- SDI Media -Русский
Аудио #3: MVO AlexFilm @DD5.1 AC3, 640 Kbps, 48.0 KHz, 6 ch- AlexFilm -Русский
Аудио #4: Original@DD5.1 E-AC3 ,640 Kbps, 48.0 KHz, 6 ch - English - Оригинал--

Доп. информация:

Звуковая дорожка сделана путем наложения чистого голоса озвучивателей на центральный канал оригинальной дорожки. Качество идентично звуковой дорожке.
--

Список эпизодов сезона


1 сезон 1 серия - Воспоминания -Remembrance
1 сезон 2 серия - Карты и легенды - Maps and Legends
1 сезон 3 серия - Конец — это начало - The End is the Beginning
1 сезон 4 серия - Совершенная прямота - Absolute Candor
--

MediaInfo 1-сезон

Общее
Уникальный идентификатор : 307634117094220627138300775467452036498 (0xE7702D0167AF42B09686CFC0F8697592)
Полное имя : D:\PIRATIYA\Звёздный путь Пикар - Star Trek Picard\Star_Trek_Picard_ 2020_S01_HEVC- 10Bit_Н265_DD5.1_N.B_HD_1080_3xRus_Eng\Star_Trek_Picard_S01E01_HEVC_Н265_DD5.1_N.B_HD_1080_3xRus_Eng.mkv
Формат : Matroska
Версия формата : Version 4
Размер файла : 2,09 Гбайт
Продолжительность : 44 м. 18 с.
Общий поток : 6740 Кбит/сек
Название фильма : Star Trek Picard 2020 S01E01 @ Nikolai.Baranov & PIRATIYA
Дата кодирования : UTC 2020-02-09 18:47:48
Программа кодирования : mkvmerge v43.0.0 ('The Quartermaster') 64-bit
Библиотека кодирования : libebml v1.3.10 + libmatroska v1.5.2
Видео
Идентификатор : 1
Формат : HEVC
Формат/Информация : High Efficiency Video Coding
Профиль формата : Main 10@L5.1@Main
Идентификатор кодека : V_MPEGH/ISO/HEVC
Продолжительность : 44 м. 18 с.
Битрейт : 4177 Кбит/сек
Ширина : 1920 пикселей
Высота : 800 пикселей
Соотношение сторон : 2,40:1
Режим частоты кадров : Постоянный
Частота кадров : 23,976 (24000/1001) кадра/сек
Цветовое пространство : YUV
Субдискретизация насыщенности : 4:2:0
Битовая глубина : 10 бит
Бит/(Пиксели*Кадры) : 0.113
Размер потока : 1,29 Гбайт (62%)
Заголовок : Star_Trek_Picard_S01E01_HEVC_Н265_DD5.1_N.B_HD_1080_3xRus_Eng
Язык : Russian
Default : Да
Forced : Нет
Цветовой диапазон : Full
Основные цвета : BT.709
Характеристики трансфера : BT.709
Коэффициенты матрицы : BT.709
Аудио #1
Идентификатор : 4
Формат : E-AC-3
Формат/Информация : Enhanced AC-3
Коммерческое название : Dolby Digital Plus
Идентификатор кодека : A_EAC3
Продолжительность : 44 м. 18 с.
Вид битрейта : Постоянный
Битрейт : 640 Кбит/сек
Каналы : 6 каналов
ChannelLayout : L R C LFE Ls Rs
Частота : 48,0 КГц
Частота кадров : 31,250 кадров/сек (1536 SPF)
Метод сжатия : С потерями
Размер потока : 203 Мбайт (9%)
Заголовок : MVO SDI Media @DD5.1 E- AC3, 640 Kbps, 48.0 KHz, 6 ch
Язык : Russian
ServiceKind/String : Complete Main
Default : Да
Forced : Нет
Аудио #2
Идентификатор : 5
Формат : AC-3
Формат/Информация : Audio Coding 3
Коммерческое название : Dolby Digital
Идентификатор кодека : A_AC3
Продолжительность : 44 м. 18 с.
Вид битрейта : Постоянный
Битрейт : 640 Кбит/сек
Каналы : 6 каналов
ChannelLayout : L R C LFE Ls Rs
Частота : 48,0 КГц
Частота кадров : 31,250 кадров/сек (1536 SPF)
Метод сжатия : С потерями
Размер потока : 203 Мбайт (9%)
Заголовок : MVO LostFilm @DD5.1 AC3, 640 Kbps, 48.0 KHz, 6 ch
Язык : Russian
ServiceKind/String : Complete Main
Default : Нет
Forced : Нет
Аудио #3
Идентификатор : 6
Формат : AC-3
Формат/Информация : Audio Coding 3
Коммерческое название : Dolby Digital
Идентификатор кодека : A_AC3
Продолжительность : 44 м. 18 с.
Вид битрейта : Постоянный
Битрейт : 640 Кбит/сек
Каналы : 6 каналов
ChannelLayout : L R C LFE Ls Rs
Частота : 48,0 КГц
Частота кадров : 31,250 кадров/сек (1536 SPF)
Метод сжатия : С потерями
Размер потока : 203 Мбайт (9%)
Заголовок : MVO AlexFilm @DD5.1 AC3, 640 Kbps, 48.0 KHz, 6 ch
Язык : Russian
ServiceKind/String : Complete Main
Default : Нет
Forced : Нет
Аудио #4
Идентификатор : 7
Формат : E-AC-3
Формат/Информация : Enhanced AC-3
Коммерческое название : Dolby Digital Plus
Идентификатор кодека : A_EAC3
Продолжительность : 44 м. 18 с.
Вид битрейта : Постоянный
Битрейт : 640 Кбит/сек
Каналы : 6 каналов
ChannelLayout : L R C LFE Ls Rs
Частота : 48,0 КГц
Частота кадров : 31,250 кадров/сек (1536 SPF)
Метод сжатия : С потерями
Размер потока : 203 Мбайт (9%)
Заголовок : Original@DD5.1 E-AC3 ,640 Kbps, 48.0 KHz, 6 ch
Язык : English
ServiceKind/String : Complete Main
Default : Нет
Forced : Нет
Текст #1
Идентификатор : 2
Формат : UTF-8
Идентификатор кодека : S_TEXT/UTF8
Идентификатор кодека/Информация : UTF-8 Plain Text
Продолжительность : 39 м. 27 с.
Битрейт : 3 бит/сек
ElementCount : 23
Размер потока : 975 байт (0%)
Заголовок : Воспоминания-Russian-Forced
Язык : Russian
Default : Да
Forced : Нет
Текст #2
Идентификатор : 3
Формат : UTF-8
Идентификатор кодека : S_TEXT/UTF8
Идентификатор кодека/Информация : UTF-8 Plain Text
Продолжительность : 42 м. 26 с.
Битрейт : 89 бит/сек
ElementCount : 571
Размер потока : 27,9 Кбайт (0%)
Заголовок : Воспоминания-Russian
Язык : Russian
Default : Нет
Forced : Нет
Текст #3
Идентификатор : 8
Формат : UTF-8
Идентификатор кодека : S_TEXT/UTF8
Идентификатор кодека/Информация : UTF-8 Plain Text
Продолжительность : 3 м. 58 с.
Битрейт : 5 бит/сек
ElementCount : 5
Размер потока : 156 байт (0%)
Заголовок : Remembrance-Eng-Forced
Язык : English
Default : Нет
Forced : Нет
Текст #4
Идентификатор : 9
Формат : UTF-8
Идентификатор кодека : S_TEXT/UTF8
Идентификатор кодека/Информация : UTF-8 Plain Text
Продолжительность : 42 м. 25 с.
Битрейт : 56 бит/сек
ElementCount : 589
Размер потока : 17,6 Кбайт (0%)
Заголовок : Remembrance-Original - SDH
Язык : English
Default : Нет
Forced : Нет
Текст #5
Идентификатор : 10
Формат : UTF-8
Идентификатор кодека : S_TEXT/UTF8
Идентификатор кодека/Информация : UTF-8 Plain Text
Продолжительность : 41 м. 27 с.
Битрейт : 54 бит/сек
ElementCount : 546
Размер потока : 16,6 Кбайт (0%)
Заголовок : Remembrance-Original
Язык : English
Default : Нет
Forced : Нет
Меню
00:00:00.000 : :Amazon Original / ru:Глава 01 / ru:Глава 01 / ru:Глава 01 / ru:Глава 01 / ru:Глава 01
00:00:06.000 : :Keep the game from ending
00:04:01.000 : :Activating a new weapon
00:06:55.000 : :Opening Credits
00:08:33.000 : :An important interview
00:16:38.000 : :Dahj finds Picard
00:22:06.000 : :A clue hidden in a painting
00:26:33.000 : :Focus and find help
00:28:08.000 : :The truth about Dahj
00:33:49.000 : :A visit to Okinawa Research Facility
00:40:38.000 : :Another sad story
00:43:17.000 : :End Credits
--

Скриншоты

-- 1-сезон.--Внимание! Раздача пополняется по мере выхода новых серий!--

Внимание! Раздача ведётся путём добавления новых серий!

Раздача ведётся путём добавления новых серий; при каждом добавлении создётся новый торрент.
Чтобы начать докачку новой серии, пользователям необходимо сделать следующее:
1. остановить скачивание,
2. удалить старый торрент у себя из клиента (старые серии удалять не надо),
3. скачать новый торрент и запустить его у себя в клиенте вместо старого, при этом указать клиенту путь в старую папку, куда и должно происходить скачивание новых серий.
Ваш клиент при этом должен произвести хеширование (проверку) старой папки (если не производит сам - помогите ему сделать это), и будет докачивать только те серии которых у вас ещё нет. Старые серии при этом не удаляются, а продолжают раздаваться!
Eсли вы уже удалили старые серии, то предотвратить повторную закачку старых серий можно, отжав галочку в соответсвующих местах при запуске нового торрента. По возможности, желательно не удалять старые серии как можно дольше, чтобы релизёр не столько продолжал раздавать старые серии, а смог сконцентрироваться на новых.
Совет для тех, кто не хочет ждать перехеширования:
Создайте ещё одну папку рядом с папкой сериала (рядом, а не в ней!!!). Каждую новую серию после удачной загрузки копируйте в новую папку так чтобы ваша основная папка всегда была пуста. Когда ваш новый торрент предложит вам закачать все файлы, выберете только последнюю. Для сидирования же укажите адрес новой папки.
Как закачать отдельный файл из торрента или докачать ранее пропущенные файлы торрента!

Как закачать отдельный файл

1. Открыть торрент
2. Снять галки с тех файлов торрента, которые мы не хотим закачивать. Оставляем только на нужных нам файлах (файле).
3. Нажать О.К.
В клиенте utorrent
Инструкция
1) Открыть торрент

2) Снять галки с тех файлов торрента, которые мы не хотим закачивать:
* либо вручную, снимая с каждого файла галку( скрин №1)
* либо, нажав кнопку "Снять метки (Select None)", сняв сразу со всех файлов(скрин №2)
№1

№2

Оставляем только на нужных нам файлах (файле).

3)Нажать О.К
-- -- --Внимание!!! 16.02. 2020. РАЗДАЧА ОБНОВЛЕНА. ДОБАВЛЕНА -4- СЕРИЯ . ОБНОВИТЕ ТОРЕНТ ФАЙЛ. ПРИЯТНОГО ПРОСМОТРА . Поблагодарить:
ЯД: 410017546713876
--Релиз от: Nikolai.Baranov & PIRATIYA -- -- -- --Время раздачи : 24/7---

_________________

Легко быть оптимистом, когда судьба не валит с ног тяжелыми ударами, а лишь иногда легонько шлепает по заднице.
[Торрент-статистика]
[Профиль]  [ЛС] 
Показать сообщения:    
Ответить на тему

Текущее время: Сегодня 08:11

Часовой пояс: GMT + 4



Вы не можете начинать темы
Вы не можете отвечать на сообщения
Вы не можете редактировать свои сообщения
Вы не можете удалять свои сообщения
Вы не можете голосовать в опросах
Вы не можете прикреплять файлы к сообщениям
Вы не можете скачивать файлы