Гений (Страховой агент) / Strakhovoy agent (Сезон 1 , Серия 1-16 из 16) ( Ольга Кандидатова) [2018,Криминальный фильм, мелодрама,WEB-DL, 1080р] [Россия]

Ответить на тему
 
Автор
Сообщение

Враг Нароода ®

Пол:

Стаж: 1 год 11 месяцев

Сообщений: 148

Репутация: 165 [+] [-]

Откуда: Красногорск

Пост 23-Ноя-2019 14:29

[Цитировать] 

--Гений (Страховой агент) / Strakhovoy agent Сезон 1 , Серия 1-16 из 16 - Полный Комплект -- --Год выпуска: 2018
Выпущено: Россия , ООО Студия Панорама
Жанр:Криминальный фильм, мелодрама
Продолжительность: 00:48:00
Сезон: 1
Серия:1-16
Количество серий в сезоне:16
Озвучка : -Русский
Субтитры: Нет --Релиз Без Рекламы --Кинопоиск--Режиссер:
Ольга Кандидатова--В ролях: Владимир Данай, Анна Арефьева, Татьяна Трунова, Варвара Владимирова, Дмитрий Поднозов, Илья Сланевский, Андрей Феськов, Сергей Колос, Денис Пьянов, Данила Воропаев, Андрей Лёвин, Глафира Козулина, Андрей Кондратьев, Алексей Титков, Павел Григорьев, Александра Сыдорук, Владимир Постников, Андрей Павловец, Мария Русских, Сергей Агафонов, Гульназ Насырова, Игорь Агеев, Максим Фомин, Виталий Олечкин, Борис Хасанов, Наталья Парашкина, Дарья Румянцева, Алёна Баркова, Наталья Мызникова, Ирина Горкунова, Анна Санникова, Станислав Шапкин, Сергей Гамов, Михаил Вассербаум, Андрей Хитрин, Александр Удальцов, Дмитрий Аршанский, Лариса Логинова, Андрей Астраханцев, Лариса Климова-- После предательства союзников бывший мошенник Феликс (Илья Сланевский) «сдаёт» банду своих подельников в обмен на условный срок и участие в программе защиты свидетелей. В рамках программы Феликса перевозят в Санкт-Петербург, меняя его внешность, паспорт и жизнь. Теперь его зовут Сергей Кривошипов (Владимир Данай) и, будучи в образе совершенно другого человека, Феликс устраивается на работу в страховую компанию. Благодаря тонкому уму, проницательности и наблюдательности, он решает самые сложные вопросы, наживая при этом новых врагов.-- --Качество :WEB-DLRip 1080p
Формат: MKV
Видео кодек: H264
Видео: 6057Кбит/сек,1920х1080(16.9),в 25.051кадр/сек,AVC (High@L4)(CABAC/2 Ref Frames)--Аудио Кодек: AC3
Аудио #1: Russian @DD5.1 AC3, 384 Kbps, 48.0 KHz, 6 ch -Русский--

MediaInfo

Общее
Уникальный идентификатор : 84861424839858446791893809002580904539 (0x3FD7B746AE24D41703514047629D8A5B)
Полное имя : D:\RussianPatriot\Гений (Страховой агент) - Strakhovoy agent\Strakhovoy_agent _2018_S01_Н264_DD5.1_N.B_HD_1080_Rus\Strakhovoy_agent _2018_S01E01-E02_Н264_DD5.1_N.B_HD_1080_Rus.mkv
Формат : Matroska
Версия формата : Version 4
Размер файла : 4,31 Гбайт
Продолжительность : 1 ч. 35 м.
Режим общего битрейта : Переменный
Общий поток : 6443 Кбит/сек
Название фильма : Strakhovoy agent 2018 S01E01-E02 @ Nikolai.Baranov & PIRATIYA
Дата кодирования : UTC 2019-11-23 06:46:27
Программа кодирования : mkvmerge v40.0.0 ('Old Town Road + Pony') 64-bit
Библиотека кодирования : libebml v1.3.9 + libmatroska v1.5.2 / Lavf58.20.100
Видео
Идентификатор : 1
Формат : AVC
Формат/Информация : Advanced Video Codec
Профиль формата : High@L4
Настройки формата : CABAC / 2 Ref Frames
Параметр CABAC формата : Да
Параметр RefFrames формата : 2 кадра
Параметр GOP формата : M=2, N=15
Идентификатор кодека : V_MPEG4/ISO/AVC
Продолжительность : 1 ч. 35 м.
Вид битрейта : Переменный
Битрейт : 6057 Кбит/сек
Максимальный битрейт : 16,0 Мбит/сек
Ширина : 1920 пикселей
Высота : 1080 пикселей
Соотношение сторон : 16:9
Режим частоты кадров : Переменный
Частота кадров : 25,051 кадров/сек
Частота кадров в оригинале : 29,970 (30000/1001) кадров/сек
Цветовое пространство : YUV
Субдискретизация насыщенности : 4:2:0
Битовая глубина : 8 бит
Тип развёртки : Прогрессивная
Бит/(Пиксели*Кадры) : 0.117
Размер потока : 4,05 Гбайт (94%)
Заголовок : Strakhovoy_agent _2018_S01E01-E02_Н264_DD5.1_N.B_HD_1080_Rus
Язык : Russian
Default : Да
Forced : Нет
Аудио
Идентификатор : 2
Формат : AC-3
Формат/Информация : Audio Coding 3
Коммерческое название : Dolby Digital
Идентификатор кодека : A_AC3
Продолжительность : 1 ч. 35 м.
Вид битрейта : Постоянный
Битрейт : 384 Кбит/сек
Каналы : 6 каналов
ChannelLayout : L R C LFE Ls Rs
Частота : 48,0 КГц
Частота кадров : 31,250 кадров/сек (1536 SPF)
Метод сжатия : С потерями
Задержка видео : -40 мс.
Размер потока : 263 Мбайт (6%)
Заголовок : Russian @DD5.1 AC3, 384 Kbps, 48.0 KHz, 6 ch
Язык : Russian
ServiceKind/String : Complete Main
Default : Да
Forced : Нет
Меню
00:00:00.040 : ru:Chapter 01 / ru:Chapter 01
--

Скриншоты

-- --

Как закачать отдельный файл

1. Открыть торрент
2. Снять галки с тех файлов торрента, которые мы не хотим закачивать. Оставляем только на нужных нам файлах (файле).
3. Нажать О.К.
В клиенте utorrent
Инструкция
1) Открыть торрент

2) Снять галки с тех файлов торрента, которые мы не хотим закачивать:
* либо вручную, снимая с каждого файла галку( скрин №1)
* либо, нажав кнопку "Снять метки (Select None)", сняв сразу со всех файлов(скрин №2)
№1

№2

Оставляем только на нужных нам файлах (файле).

3)Нажать О.К
-- -- --Внимание!!! 03.12. 2019. РАЗДАЧА ОБНОВЛЕНА. ДОБАВЛЕНА -15-16- СЕРИЯ. ФИНАЛ ФИЛЬМА. ОБНОВИТЕ ТОРЕНТ ФАЙЛ. ПРИЯТНОГО ПРОСМОТРА . Поблагодарить:
ЯД: 410017546713876
--Релиз от: Nikolai.Baranov & PIRATIYA -- -- -- --Время раздачи : 24/7---

_________________

Легко быть оптимистом, когда судьба не валит с ног тяжелыми ударами, а лишь иногда легонько шлепает по заднице.
[Торрент-статистика]
[Профиль]  [ЛС] 
Показать сообщения:    
Ответить на тему

Текущее время: Сегодня 21:01

Часовой пояс: GMT + 4



Вы не можете начинать темы
Вы не можете отвечать на сообщения
Вы не можете редактировать свои сообщения
Вы не можете удалять свои сообщения
Вы не можете голосовать в опросах
Вы не можете прикреплять файлы к сообщениям
Вы не можете скачивать файлы