Мандалорец/ The Mandalorian (Сезон 1 , Серия 1--8 из 8) (Дебора Чоу) [2019,Фантастика, боевик, приключения,WEB-DLRip 1080p] [LostFilm+NewStudio+HDRezka+AlexFilm+Jaskier+TVShows+ENG]+[Subs Rus+ENG]

Ответить на тему
 
Автор
Сообщение

Враг Нароода ®

Пол:

Стаж: 2 года 7 месяцев

Сообщений: 203

Репутация: 225 [+] [-]

Откуда: Красногорск

Пост 17-Ноя-2019 15:29

[Цитировать] 

-- --Мандалорец/ The Mandalorian Сезон 1 , Серия 1-8 из 8 - Полный Комплект -- --Год выпуска: 2019
Выпущено: США , Lucasfilm Ltd., Walt Disney Studios
Жанр: Фантастика, боевик, приключения
Продолжительность: 00:40:00
Сезон: 1
Серия:1-8
Количество серий в сезоне:8--Озвучка #1: Профессиональный многоголосый - LostFilm - Русский
Озвучка #2: Профессиональный многоголосый - NewStudio - Русский
Озвучка #3: Профессиональный многоголосый - HDRezka Studio - Русский
Озвучка #4: Профессиональный многоголосый - AlexFilm - Русский
Озвучка #5: Профессиональный многоголосый - Jaskier - Русский
Озвучка #6: Профессиональный многоголосый - TVShows - Русский
Озвучка #7: Дублированный - Flarrow Films - Русский
Озвучка #8: Профессиональный многоголосый -Английский - Оригинал
Субтитры: Русские, ,English, English SDH
--Релиз Без Рекламы --MDB 9.1 --Режиссеры:
Дебора Чоу, Рик Фамуйива, Дэйв Филони--В ролях: : Педро Паскаль, Кайл Пацек, Брендан Уэйн, Бернард Баллен, Александра Гилман, Луис Ричард Гомес, Джамал Антар, Тейт Флетчер, Тони Табоада, Омид Абтахи-- События «Мандалорца» разворачиваются после падения Галактической империи в финале «Возвращения джедая» из саги «Звездных войн», но до появления Первого Ордена, с которым зрители познакомились в «Пробуждении силы». В центре сюжета — одинокий мандалорец-наёмник, живущий на краю обитаемой галактики на окраине ЗВ, куда не долетают джедаи и ситхи и не дотягивается закон Новой Республики. Представитель некогда могучей расы благородных воинов-мандалорцев, теперь он вынужден влачить жалкое существование среди отбросов общества.-- --Качество :WEB-DLRip - HEVC 10bit - 1080p
Формат: MKV
Видео кодек: H265
Видео: 1 3819Кбит/сек,1920х1080(16.9),в 23.976кадр/сек, HEVC (Main10@L4@Main)
Видео: 2-8 3157Кбит/сек,1920х800(2.40),в 23.976кадр/сек, HEVC (Main10@L4@Main)--Аудио Кодек:AC3
Аудио #1:MVO LostFilm @DD5.1 E-AC3, 768 Kbps, 48.0 KHz, 6 ch- Lostfilm -Русский
Аудио #2:MVO NewStudio @DD5.1 AC3, 640 Kbps, 48.0 KHz, 6 ch-NewStudio -Русский
Аудио #3:MVO HDRezka Studio @DD5.1 AC3, 640 Kbps, 48.0 KHz, 6 ch-HDRezka Studio -Русский
Аудио #4:MVO AlexFilm @DD5.1 AC3, 384 Kbps, 48.0 KHz, 6 chh-AlexFilm -Русский
Аудио #5:MVO Jaskier @DD5.1 AC3, 384 Kbps, 48.0 KHz, 6 ch-Jaskier -Русский
Аудио #6:MVO TVShows @DD5.1 AC3, 384 Kbps, 48.0 KHz, 6 ch-TVShows -Русский
Аудио #7: Dub Flarrow Films @DD5.1 AC3, 384 Kbps, 48.0 KHz, 6 ch-Flarrow Films -Русский
Аудио #8: Original@DD5.1 E-AC3, 768 Kbps, 48.0 KHz, 6 ch - English - Оригинал--

Доп. информация:

Звуковая дорожка сделана путем наложения чистого голоса озвучивателей на центральный канал оригинальной дорожки. Качество идентично звуковой дорожке.
--

Список эпизодов сезона


1 сезон 1 серия - Глава 1 - Chapter One
1 сезон 2 серия - Глава 2: Дитя - Chapter 2: The Child
1 сезон 3 серия - Глава 3: Грех - Chapter 3: The Sin
1 сезон 4 серия - Глава 4: Убежище - Chapter 4: Sanctuary
1 сезон 5 серия - Глава 5: Стрелок - Chapter 5: The Gunslinger
1 сезон 6 серия - Глава 6: Пленник - Chapter 6: The Prisoner
1 сезон 7 серия - Глава 7: Возмездие - Chapter 7: The Reckoning
1 сезон 8 серия - Глава 8: Искупление - Chapter 8: Redemption
--

MediaInfo сезона

Общее
Уникальный идентификатор : 239993855387752094719780824015383143248 (0xB48D22A0237B84D2E6D30DBA5D9DA350)
Полное имя : C:\Users\Nikolay.Baranov\Downloads\Nikolai.Baranov & PIRATIYA\Мандалорец - The Mandalorian\The_Mandalorian_2019_S01_HEVC- 10Bit_Н265_DD5.1_N.B_HD_1080_6xRus_Eng\The_Mandalorian_S01E01_HEVC_Н265_DD5.1_N.B_HD_1080_6xRus_Eng.mkv
Формат : Matroska
Версия формата : Version 4
Размер файла : 2,22 Гбайт
Продолжительность : 38 м. 46 с.
Общий поток : 8181 Кбит/сек
Название фильма : The Mandalorian 2019 S01E01 @ Nikolai.Baranov & PIRATIYA
Дата кодирования : UTC 2019-11-24 09:07:42
Программа кодирования : mkvmerge v40.0.0 ('Old Town Road + Pony') 64-bit
Библиотека кодирования : libebml v1.3.9 + libmatroska v1.5.2 / Lavf58.20.100
Обложка : Yes
Attachments : small_cover.jpg / cover.jpg / poster.the.mandalorian.jpg
Видео
Идентификатор : 1
Формат : HEVC
Формат/Информация : High Efficiency Video Coding
Профиль формата : Main 10@L4@Main
Идентификатор кодека : V_MPEGH/ISO/HEVC
Продолжительность : 38 м. 46 с.
Битрейт : 3819 Кбит/сек
Ширина : 1920 пикселей
Высота : 1080 пикселей
Соотношение сторон : 16:9
Режим частоты кадров : Постоянный
Частота кадров : 23,976 (24000/1001) кадра/сек
Цветовое пространство : YUV
Субдискретизация насыщенности : 4:2:0
Битовая глубина : 10 бит
Бит/(Пиксели*Кадры) : 0.077
Размер потока : 1,03 Гбайт (47%)
Заголовок : The_Mandalorian_S01E01_HEVC_Н265_DD5.1_N.B_HD_1080_6xRus_Eng
Библиотека кодирования : x265 3.1+11-de920e0a3183:[Windows][MSVC 1922][64 bit] 10bit
Настройки программы : cpuid=1111039 / frame-threads=3 / numa-pools=8 / wpp / no-pmode / no-pme / no-psnr / no-ssim / log-level=2 / input-csp=1 / input-res=1920x1080 / interlace=0 / total-frames=55774 / level-idc=0 / high-tier=1 / uhd-bd=0 / ref=4 / no-allow-non-conformance / no-repeat-headers / annexb / no-aud / no-hrd / info / hash=0 / no-temporal-layers / open-gop / min-keyint=24 / keyint=240 / gop-lookahead=0 / bframes=16 / b-adapt=2 / b-pyramid / bframe-bias=0 / rc-lookahead=90 / lookahead-slices=4 / scenecut=40 / radl=0 / no-splice / no-intra-refresh / ctu=64 / min-cu-size=8 / no-rect / no-amp / max-tu-size=32 / tu-inter-depth=4 / tu-intra-depth=4 / limit-tu=0 / rdoq-level=2 / dynamic-rd=0.00 / no-ssim-rd / signhide / no-tskip / nr-intra=0 / nr-inter=0 / no-constrained-intra / no-strong-intra-smoothing / max-merge=3 / limit-refs=3 / limit-modes / me=3 / subme=7 / merange=92 / temporal-mvp / no-hme / weightp / no-weightb / no-analyze-src-pics / deblock=0:0 / sao / no-sao-non-deblock / rd=4 / no-early-skip / rskip / no-fast-intra / no-tskip-fast / no-cu-lossless / no-b-intra / no-splitrd-skip / rdpenalty=0 / psy-rd=1.30 / psy-rdoq=1.00 / no-rd-refine / no-lossless / cbqpoffs=0 / crqpoffs=0 / rc=crf / crf=15.8 / qcomp=0.60 / qpstep=4 / stats-write=0 / stats-read=0 / ipratio=1.40 / pbratio=1.30 / aq-mode=4 / aq-strength=1.00 / cutree / zone-count=0 / no-strict-cbr / qg-size=32 / no-rc-grain / qpmax=69 / qpmin=0 / no-const-vbv / sar=1 / overscan=0 / videoformat=5 / range=0 / colorprim=2 / transfer=2 / colormatrix=2 / chromaloc=0 / display-window=0cll=0,0 / min-luma=0 / max-luma=1023 / log2-max-poc-lsb=8 / vui-timing-info / vui-hrd-info / slices=1 / no-opt-qp-pps / no-opt-ref-list-length-pps / no-multi-pass-opt-rps / scenecut-bias=0.05 / no-opt-cu-delta-qp / no-aq-motion / no-hdr / no-hdr-opt / no-dhdr10-opt / no-idr-recovery-sei / analysis-reuse-level=5 / scale-factor=0 / refine-intra=0 / refine-inter=0 / refine-mv=0 / refine-ctu-distortion=0 / no-limit-sao / ctu-info=0 / no-lowpass-dct / refine-analysis-type=0 / copy-pic=1 / max-ausize-factor=1.0 / no-dynamic-refine / no-single-sei / no-hevc-aq / no-svt / no-field / qp-adaptation-range=1.00
Язык : Russian
Default : Да
Forced : Нет
Аудио #1
Идентификатор : 4
Формат : E-AC-3
Формат/Информация : Enhanced AC-3
Коммерческое название : Dolby Digital Plus
Идентификатор кодека : A_EAC3
Продолжительность : 38 м. 46 с.
Вид битрейта : Постоянный
Битрейт : 768 Кбит/сек
Каналы : 6 каналов
ChannelLayout : L R C LFE Ls Rs
Частота : 48,0 КГц
Частота кадров : 31,250 кадров/сек (1536 SPF)
Метод сжатия : С потерями
Задержка видео : -83 мс.
Размер потока : 213 Мбайт (9%)
Заголовок : MVO LostFilm @DD5.1 E-AC3, 768 Kbps, 48.0 KHz, 6 ch
Язык : Russian
ServiceKind/String : Complete Main
Default : Да
Forced : Нет
Аудио #2
Идентификатор : 5
Формат : AC-3
Формат/Информация : Audio Coding 3
Коммерческое название : Dolby Digital
Идентификатор кодека : A_AC3
Продолжительность : 38 м. 46 с.
Вид битрейта : Постоянный
Битрейт : 640 Кбит/сек
Каналы : 6 каналов
ChannelLayout : L R C LFE Ls Rs
Частота : 48,0 КГц
Частота кадров : 31,250 кадров/сек (1536 SPF)
Метод сжатия : С потерями
Задержка видео : -83 мс.
Размер потока : 177 Мбайт (8%)
Заголовок : MVO HDRezka Studio @DD5.1 AC3, 640 Kbps, 48.0 KHz, 6 ch
Язык : Russian
ServiceKind/String : Complete Main
Default : Нет
Forced : Нет
Аудио #3
Идентификатор : 6
Формат : AC-3
Формат/Информация : Audio Coding 3
Коммерческое название : Dolby Digital
Идентификатор кодека : A_AC3
Продолжительность : 38 м. 46 с.
Вид битрейта : Постоянный
Битрейт : 640 Кбит/сек
Каналы : 6 каналов
ChannelLayout : L R C LFE Ls Rs
Частота : 48,0 КГц
Частота кадров : 31,250 кадров/сек (1536 SPF)
Метод сжатия : С потерями
Задержка видео : -83 мс.
Размер потока : 177 Мбайт (8%)
Заголовок : MVO NewStudio @DD5.1 AC3, 640 Kbps, 48.0 KHz, 6 ch
Язык : Russian
ServiceKind/String : Complete Main
Default : Нет
Forced : Нет
Аудио #4
Идентификатор : 7
Формат : AC-3
Формат/Информация : Audio Coding 3
Коммерческое название : Dolby Digital
Идентификатор кодека : A_AC3
Продолжительность : 38 м. 46 с.
Вид битрейта : Постоянный
Битрейт : 384 Кбит/сек
Каналы : 6 каналов
ChannelLayout : L R C LFE Ls Rs
Частота : 48,0 КГц
Частота кадров : 31,250 кадров/сек (1536 SPF)
Метод сжатия : С потерями
Задержка видео : -83 мс.
Размер потока : 106 Мбайт (5%)
Заголовок : MVO Jaskier @DD5.1 AC3, 384 Kbps, 48.0 KHz, 6 ch
Язык : Russian
ServiceKind/String : Complete Main
Default : Нет
Forced : Нет
Аудио #5
Идентификатор : 8
Формат : AC-3
Формат/Информация : Audio Coding 3
Коммерческое название : Dolby Digital
Идентификатор кодека : A_AC3
Продолжительность : 38 м. 46 с.
Вид битрейта : Постоянный
Битрейт : 384 Кбит/сек
Каналы : 6 каналов
ChannelLayout : L R C LFE Ls Rs
Частота : 48,0 КГц
Частота кадров : 31,250 кадров/сек (1536 SPF)
Метод сжатия : С потерями
Задержка видео : -83 мс.
Размер потока : 106 Мбайт (5%)
Заголовок : MVO AlexFilm @DD5.1 AC3, 384 Kbps, 48.0 KHz, 6 ch
Язык : Russian
ServiceKind/String : Complete Main
Default : Нет
Forced : Нет
Аудио #6
Идентификатор : 9
Формат : AC-3
Формат/Информация : Audio Coding 3
Коммерческое название : Dolby Digital
Идентификатор кодека : A_AC3
Продолжительность : 38 м. 46 с.
Вид битрейта : Постоянный
Битрейт : 384 Кбит/сек
Каналы : 6 каналов
ChannelLayout : L R C LFE Ls Rs
Частота : 48,0 КГц
Частота кадров : 31,250 кадров/сек (1536 SPF)
Метод сжатия : С потерями
Задержка видео : -83 мс.
Размер потока : 106 Мбайт (5%)
Заголовок : MVO TVShows @DD5.1 AC3, 384 Kbps, 48.0 KHz, 6 ch
Язык : Russian
ServiceKind/String : Complete Main
Default : Нет
Forced : Нет
Аудио #7
Идентификатор : 10
Формат : E-AC-3 JOC
Формат/Информация : Enhanced AC-3 with Joint Object Coding
Коммерческое название : Dolby Digital Plus with Dolby Atmos
Идентификатор кодека : A_EAC3
Продолжительность : 38 м. 46 с.
Вид битрейта : Постоянный
Битрейт : 768 Кбит/сек
Каналы : 6 каналов
ChannelLayout : L R C LFE Ls Rs
Частота : 48,0 КГц
Частота кадров : 31,250 кадров/сек (1536 SPF)
Метод сжатия : С потерями
Размер потока : 213 Мбайт (9%)
Заголовок : Original@DD5.1 E-AC3, 768 Kbps, 48.0 KHz, 6 ch
Язык : English
ServiceKind/String : Complete Main
Default : Нет
Forced : Нет
ComplexityIndex : 16
NumberOfDynamicObjects : 15
BedChannelCount/String : 1 канал
BedChannelConfiguration : LFE
Аудио #8
Идентификатор : 13
Формат : AC-3
Формат/Информация : Audio Coding 3
Коммерческое название : Dolby Digital
Идентификатор кодека : A_AC3
Продолжительность : 38 м. 46 с.
Вид битрейта : Постоянный
Битрейт : 384 Кбит/сек
Каналы : 6 каналов
ChannelLayout : L R C LFE Ls Rs
Частота : 48,0 КГц
Частота кадров : 31,250 кадров/сек (1536 SPF)
Метод сжатия : С потерями
Задержка видео : -83 мс.
Размер потока : 106 Мбайт (5%)
Заголовок : Dub Flarrow Films @DD5.1 AC3, 384 Kbps, 48.0 KHz, 6 ch
Язык : Russian
ServiceKind/String : Complete Main
Default : Нет
Forced : Нет
Текст #1
Идентификатор : 2
Формат : PGS
Режим смешивания : zlib
Идентификатор кодека : S_HDMV/PGS
Идентификатор кодека/Информация : Picture based subtitle format used on BDs/HD-DVDs
Продолжительность : 4 м. 9 с.
Битрейт : 55,3 Кбит/сек
ElementCount : 75
Размер потока : 1,65 Мбайт (0%)
Заголовок : Russian-Forced
Язык : Russian
Default : Да
Forced : Нет
Текст #2
Идентификатор : 3
Формат : UTF-8
Идентификатор кодека : S_TEXT/UTF8
Идентификатор кодека/Информация : UTF-8 Plain Text
Продолжительность : 35 м. 37 с.
Битрейт : 52 бит/сек
ElementCount : 305
Размер потока : 13,8 Кбайт (0%)
Заголовок : Russian
Язык : Russian
Default : Нет
Forced : Нет
Текст #3
Идентификатор : 11
Формат : UTF-8
Идентификатор кодека : S_TEXT/UTF8
Идентификатор кодека/Информация : UTF-8 Plain Text
Продолжительность : 35 м. 34 с.
Битрейт : 41 бит/сек
ElementCount : 428
Размер потока : 10,9 Кбайт (0%)
Заголовок : Original - SDH
Язык : English
Default : Нет
Forced : Нет
Текст #4
Идентификатор : 12
Формат : UTF-8
Идентификатор кодека : S_TEXT/UTF8
Идентификатор кодека/Информация : UTF-8 Plain Text
Продолжительность : 35 м. 34 с.
Битрейт : 30 бит/сек
ElementCount : 303
Размер потока : 7,92 Кбайт (0%)
Заголовок : Original
Язык : English
Default : Нет
Forced : Нет
Меню
00:00:00.083 : ru:Chapter 01 / ru:Chapter 01 / ru:Chapter 01 / ru:Chapter 01 / ru:Chapter 01 / ru:Chapter 01 / ru:Chapter 01 / ru:Chapter 01 / ru:Chapter 01 / ru:Chapter 01 / ru:Chapter 01 / ru:Chapter 01 / ru:Chapter 01
--

Скриншоты

-- --

Как закачать отдельный файл

1. Открыть торрент
2. Снять галки с тех файлов торрента, которые мы не хотим закачивать. Оставляем только на нужных нам файлах (файле).
3. Нажать О.К.
В клиенте utorrent
Инструкция
1) Открыть торрент

2) Снять галки с тех файлов торрента, которые мы не хотим закачивать:
* либо вручную, снимая с каждого файла галку( скрин №1)
* либо, нажав кнопку "Снять метки (Select None)", сняв сразу со всех файлов(скрин №2)
№1

№2

Оставляем только на нужных нам файлах (файле).

3)Нажать О.К
-- -- --Внимание!!! 10.01. 2020. РАЗДАЧА ОБНОВЛЕНА. ДОБАВЛЕНА -8- СЕРИЯ ФИНАЛ СЕЗОНА. ОБНОВИТЕ ТОРЕНТ ФАЙЛ. ПРИЯТНОГО ПРОСМОТРА . Поблагодарить:
ЯД: 410017546713876
--Релиз от: Nikolai.Baranov & PIRATIYA -- -- -- --Время раздачи : 24/7---

_________________

Легко быть оптимистом, когда судьба не валит с ног тяжелыми ударами, а лишь иногда легонько шлепает по заднице.


Последний раз редактировалось: Враг Нароода (2020-01-10 11:46), всего редактировалось 1 раз
[Торрент-статистика]
[Профиль]  [ЛС] 

Svar

Стаж: 8 лет 8 месяцев

Сообщений: 13

Репутация: 15 [+] [-]

Пост 24-Дек-2019 18:56 (спустя 1 месяц 7 дней)

[Цитировать] 

Вроде так ничего по началу. Нравится сериал.
[Торрент-статистика]
[Профиль]  [ЛС] 
Показать сообщения:    
Ответить на тему

Текущее время: Сегодня 03:45

Часовой пояс: GMT + 4



Вы не можете начинать темы
Вы не можете отвечать на сообщения
Вы не можете редактировать свои сообщения
Вы не можете удалять свои сообщения
Вы не можете голосовать в опросах
Вы не можете прикреплять файлы к сообщениям
Вы не можете скачивать файлы