Видеть/ See (Сезон 1 , Серия 1-8 из 8) ( Фрэнсис Лоуренс, Андерс Энгстрем, Стивен Серджик) [2019,Фантастика, драма,WEB-DLRip 720p] [LostFilm+NewStudio+HDRezka+ENG]+[Subs Rus+ENG]

Ответить на тему
 
Автор
Сообщение

Враг Нароода ®

Пол:

Стаж: 2 года 6 месяцев

Сообщений: 196

Репутация: 210 [+] [-]

Откуда: Красногорск

Пост 17-Ноя-2019 12:55

[Цитировать] 

-- --Видеть/ See Сезон 1 , Серия 1-8 из 8 - Полный Комплект-- --Год выпуска: 2019
Выпущено: США , Chernin Entertainment, Endeavor Content
Жанр: Фантастика, драма
Продолжительность: 00:57:00
Сезон: 1
Серия:1-8
Количество серий в сезоне:8--Озвучка #1: Профессиональный многоголосый - LostFilm - Русский
Озвучка #2: Профессиональный многоголосый - NewStudio - Русский
Озвучка #3: Профессиональный многоголосый - HDRezka Studio - Русский
Озвучка #4: Профессиональный многоголосый -Английский - Оригинал
Субтитры: Русские, ,English, English SDH
--Релиз Без Рекламы --MDB 7.8 --Режиссеры:
Фрэнсис Лоуренс, Андерс Энгстрем, Стивен Серджик--В ролях: : Элфри Вудард, Джейсон Момоа, Сильвия Хукс, Хера Хильмар, Кристиан Камарго, Арчи Мадекве, Неста Купер, Ядира Гевара-Прип, Джош Блэкер, Кристиан Слоун, Моджиан Ариа, Мэрили Токингтон, Хиро Канагава, Танту Кардинал, Питер Брайант, Люк Родерик, Лорен Глэйзер-- В далёком будущем человеческая раса полностью лишилась зрения. Чтобы выжить, людям пришлось найти новый способ сосуществовать, строить и добывать пищу. Всё меняется, когда в семье бесстрашного воина Бабы Восса рождаются зрячие близнецы. Их появление рискует нарушить хрупкий баланс нового мира и ввергнуть успокоившуюся цивилизацию в хаос.-- --Качество :WEB-DLRip 720p
Формат: MKV
Видео кодек: H264
Видео: 1-32104Кбит/сек,11140х528(2.110),в 23.976кадр/сек,AVC (High@L3.1)(CABAC/5 Ref Frames)
Видео: 4-82825Кбит/сек,11392х660(2.109),в 23.976кадр/сек,AVC (High@L3.2)(CABAC/5 Ref Frames)--Аудио Кодек:AC3
Аудио #1:MVO LostFilm @DD5.1 AC3, 640 Kbps, 48.0 KHz, 6 ch- Lostfilm -Русский
Аудио #2:MVO NewStudio @DD5.1 AC3, 384 Kbps, 48.0 KHz, 6 ch-NewStudio -Русский
Аудио #3:MVO HDRezka Studio @DD5.1 AC3, 384 Kbps, 48.0 KHz, 6 ch-HDRezka Studio -Русский
Аудио #4: Original@DD5.1 AC3 ,640 Kbps, 48.0 KHz, 6 ch - English - Оригинал--

Доп. информация:

Звуковая дорожка сделана путем наложения чистого голоса озвучивателей на центральный канал оригинальной дорожки. Качество идентично звуковой дорожке.
--

Список эпизодов сезона


1 сезон 1 серия - Божье пламя - Godflame
1 сезон 2 серия - Послание в бутылке - Message in a Bottle
1 сезон 3 серия - Свежая кровь - Fresh Blood
1 сезон 4 серия - Река - The River
1 сезон 5 серия - Пластик - Plastic
1 сезон 6 серия - Шёлк - Silk
1 сезон 7 серия - Лавандовая дорога - The Lavender Road
1 сезон 8 серия - Дом Просвещения - House of Enlightenment
--

MediaInfo

Общее
Уникальный идентификатор : 157694961876433999582375790015059103445 (0x76A2F1E5FE8305B2ACD9733AD6748ED5)
Полное имя : C:\Users\Nikolay.Baranov\Downloads\Nikolai.Baranov & PIRATIYA\Видеть - See\SEE_2019_S01_Н264_DD5.1_N.B_HD_720_3xRus_Eng\SEE_2019_S01E01_Н264_DD5.1_N.B_HD_720_3xRus_Eng.mkv
Формат : Matroska
Версия формата : Version 4
Размер файла : 1,68 Гбайт
Продолжительность : 57 м. 30 с.
Общий поток : 4170 Кбит/сек
Название фильма : See 2019 S01E01 @ Nikolai.Baranov & PIRATIYA
Дата кодирования : UTC 2019-11-16 15:39:55
Программа кодирования : mkvmerge v40.0.0 ('Old Town Road + Pony') 64-bit
Библиотека кодирования : libebml v1.3.9 + libmatroska v1.5.2 / Lavf58.20.100
Видео
Идентификатор : 1
Формат : AVC
Формат/Информация : Advanced Video Codec
Профиль формата : High@L3.1
Настройки формата : CABAC / 5 Ref Frames
Параметр CABAC формата : Да
Параметр RefFrames формата : 5 кадров
Идентификатор кодека : V_MPEG4/ISO/AVC
Продолжительность : 57 м. 30 с.
Битрейт : 2104 Кбит/сек
Ширина : 1114 пикселей
Высота : 528 пикселей
Соотношение сторон : 2,110
Режим частоты кадров : Постоянный
Частота кадров : 23,976 (24000/1001) кадра/сек
Цветовое пространство : YUV
Субдискретизация насыщенности : 4:2:0
Битовая глубина : 8 бит
Тип развёртки : Прогрессивная
Бит/(Пиксели*Кадры) : 0.149
Размер потока : 865 Мбайт (50%)
Заголовок : SEE_2019_S01E01_Н264_DD5.1_N.B_HD_720_3xRus_Eng
Язык : Russian
Default : Да
Forced : Нет
Цветовой диапазон : Limited
Основные цвета : BT.709
Характеристики трансфера : BT.709
Коэффициенты матрицы : BT.709
Аудио #1
Идентификатор : 5
Формат : AC-3
Формат/Информация : Audio Coding 3
Коммерческое название : Dolby Digital
Идентификатор кодека : A_AC3
Продолжительность : 57 м. 30 с.
Вид битрейта : Постоянный
Битрейт : 640 Кбит/сек
Каналы : 6 каналов
ChannelLayout : L R C LFE Ls Rs
Частота : 48,0 КГц
Частота кадров : 31,250 кадров/сек (1536 SPF)
Метод сжатия : С потерями
Задержка видео : -42 мс.
Размер потока : 263 Мбайт (15%)
Заголовок : MVO LostFilm @DD5.1 AC3, 640 Kbps, 48.0 KHz, 6 ch
Язык : Russian
ServiceKind/String : Complete Main
Default : Да
Forced : Нет
Аудио #2
Идентификатор : 6
Формат : AC-3
Формат/Информация : Audio Coding 3
Коммерческое название : Dolby Digital
Идентификатор кодека : A_AC3
Продолжительность : 57 м. 30 с.
Вид битрейта : Постоянный
Битрейт : 384 Кбит/сек
Каналы : 6 каналов
ChannelLayout : L R C LFE Ls Rs
Частота : 48,0 КГц
Частота кадров : 31,250 кадров/сек (1536 SPF)
Метод сжатия : С потерями
Задержка видео : -42 мс.
Размер потока : 158 Мбайт (9%)
Заголовок : MVO NewStudio @DD5.1 AC3, 384 Kbps, 48.0 KHz, 6 ch
Язык : Russian
ServiceKind/String : Complete Main
Default : Нет
Forced : Нет
Аудио #3
Идентификатор : 7
Формат : AC-3
Формат/Информация : Audio Coding 3
Коммерческое название : Dolby Digital
Идентификатор кодека : A_AC3
Продолжительность : 57 м. 30 с.
Вид битрейта : Постоянный
Битрейт : 384 Кбит/сек
Каналы : 6 каналов
ChannelLayout : L R C LFE Ls Rs
Частота : 48,0 КГц
Частота кадров : 31,250 кадров/сек (1536 SPF)
Метод сжатия : С потерями
Задержка видео : -42 мс.
Размер потока : 158 Мбайт (9%)
Заголовок : .MVO HDRezka Studio @DD5.1 AC3, 384 Kbps, 48.0 KHz, 6 ch
Язык : Russian
ServiceKind/String : Complete Main
Default : Нет
Forced : Нет
Аудио #4
Идентификатор : 8
Формат : AC-3
Формат/Информация : Audio Coding 3
Коммерческое название : Dolby Digital
Идентификатор кодека : A_AC3
Продолжительность : 57 м. 30 с.
Вид битрейта : Постоянный
Битрейт : 640 Кбит/сек
Каналы : 6 каналов
ChannelLayout : L R C LFE Ls Rs
Частота : 48,0 КГц
Частота кадров : 31,250 кадров/сек (1536 SPF)
Метод сжатия : С потерями
Задержка видео : -42 мс.
Размер потока : 263 Мбайт (15%)
Заголовок : Original@DD5.1 AC3 ,640 Kbps, 48.0 KHz, 6 ch
Язык : English
ServiceKind/String : Complete Main
Default : Нет
Forced : Нет
Текст #1
Идентификатор : 2
Формат : PGS
Режим смешивания : zlib
Идентификатор кодека : S_HDMV/PGS
Идентификатор кодека/Информация : Picture based subtitle format used on BDs/HD-DVDs
Продолжительность : 7 с. 7 мс.
Битрейт : 1686 Кбит/сек
ElementCount : 51
Размер потока : 1,41 Мбайт (0%)
Заголовок : Russian-Forced
Язык : Russian
Default : Да
Forced : Нет
Текст #2
Идентификатор : 3
Формат : PGS
Режим смешивания : zlib
Идентификатор кодека : S_HDMV/PGS
Идентификатор кодека/Информация : Picture based subtitle format used on BDs/HD-DVDs
Продолжительность : 55 м. 46 с.
Битрейт : 34,6 Кбит/сек
ElementCount : 1196
Размер потока : 13,8 Мбайт (1%)
Заголовок : Russian-Apple TV+
Язык : Russian
Default : Нет
Forced : Нет
Текст #3
Идентификатор : 4
Формат : UTF-8
Идентификатор кодека : S_TEXT/UTF8
Идентификатор кодека/Информация : UTF-8 Plain Text
Продолжительность : 53 м. 38 с.
Битрейт : 62 бит/сек
ElementCount : 487
Размер потока : 24,5 Кбайт (0%)
Заголовок : Russian-CasStudio
Язык : Russian
Default : Нет
Forced : Нет
Текст #4
Идентификатор : 9
Формат : UTF-8
Идентификатор кодека : S_TEXT/UTF8
Идентификатор кодека/Информация : UTF-8 Plain Text
Продолжительность : 55 м. 54 с.
Битрейт : 40 бит/сек
ElementCount : 601
Размер потока : 16,8 Кбайт (0%)
Заголовок : Original - SDH
Язык : English
Default : Нет
Forced : Нет
Текст #5
Идентификатор : 10
Формат : UTF-8
Идентификатор кодека : S_TEXT/UTF8
Идентификатор кодека/Информация : UTF-8 Plain Text
Продолжительность : 55 м. 4 с.
Битрейт : 35 бит/сек
ElementCount : 487
Размер потока : 14,3 Кбайт (0%)
Заголовок : Original
Язык : English
Default : Нет
Forced : Нет
Меню
00:00:00.042 : ru:Chapter 01 / ru:Chapter 01 / ru:Chapter 01 / ru:Chapter 01 / ru:Chapter 01 / ru:Chapter 01 / ru:Chapter 01 / ru:Chapter 01 / ru:Chapter 01 / ru:Chapter 01
--

Скриншоты

-- --

Как закачать отдельный файл

1. Открыть торрент
2. Снять галки с тех файлов торрента, которые мы не хотим закачивать. Оставляем только на нужных нам файлах (файле).
3. Нажать О.К.
В клиенте utorrent
Инструкция
1) Открыть торрент

2) Снять галки с тех файлов торрента, которые мы не хотим закачивать:
* либо вручную, снимая с каждого файла галку( скрин №1)
* либо, нажав кнопку "Снять метки (Select None)", сняв сразу со всех файлов(скрин №2)
№1

№2

Оставляем только на нужных нам файлах (файле).

3)Нажать О.К
-- -- --Внимание!!! 14.12. 2019. РАЗДАЧА ОБНОВЛЕНА. ДОБАВЛЕНА - 8 - СЕРИЯ , Звуковая Дорожка HDRezka Studio. ФИНАЛ СЕЗОНА. ОБНОВИТЕ ТОРЕНТ ФАЙЛ. ПРИЯТНОГО ПРОСМОТРА . Поблагодарить:
ЯД: 410017546713876
--Релиз от: Nikolai.Baranov & PIRATIYA -- -- -- --Время раздачи : 24/7---

_________________

Легко быть оптимистом, когда судьба не валит с ног тяжелыми ударами, а лишь иногда легонько шлепает по заднице.
[Торрент-статистика]
[Профиль]  [ЛС] 
Показать сообщения:    
Ответить на тему

Текущее время: Сегодня 00:57

Часовой пояс: GMT + 4



Вы не можете начинать темы
Вы не можете отвечать на сообщения
Вы не можете редактировать свои сообщения
Вы не можете удалять свои сообщения
Вы не можете голосовать в опросах
Вы не можете прикреплять файлы к сообщениям
Вы не можете скачивать файлы