Зло/ Evil (Сезон 1 , Серия 1-13 из 13) (Роберт Кинг, Рон Андервуд) [2019,Драма,WEB-DLRip 1080p] [LostFilm+TVShows+NewStudio+DRezka+ENG]+[Subs Rus , ENG]

Ответить на тему
 
Автор
Сообщение

Враг Нароода ®

Пол:

Стаж: 2 года 7 месяцев

Сообщений: 203

Репутация: 222 [+] [-]

Откуда: Красногорск

Пост 04-Ноя-2019 14:53

[Цитировать] 

-- --Зло/ Evil Сезон 1 , Серия 1-13 из 13 Полный Комплект -- --Год выпуска: 2019
Выпущено: США , CBS Television Studios, Scott Free Productions
Жанр: Драма
Продолжительность: 00:45:00
Сезон: 1
Серия:1-13
Количество серий в сезоне:13--Озвучка #1: Профессиональный многоголосый - LostFilm - Русский
Озвучка #2: Профессиональный многоголосый - TVShows - Русский
Озвучка #3: Профессиональный многоголосый - NewStudio - Русский
Озвучка #4: Профессиональный многоголосый - HDRezka Studio - Русский
Озвучка #5: Профессиональный многоголосый -Английский - Оригинал
Субтитры: Русские , английские SDH
--Релиз Без Рекламы --MDB 7.5 --Режиссеры:
Роберт Кинг, Рон Андервуд--В ролях: : Катя Херберс, Майк Колтер, Майкл Эмерсон, Аасиф Мандви, Бруклин Шак, Скайлар Грэй, Мэдди Крокко, Далия Напп, Ной Роббинс, Эвелин Джовине-- В центре сюжета — психолог, специализирующийся на событиях, которые пресса квалифицирует как «чудо». Реально ли этим явлениям нет объяснения или их все-таки можно научно обосновать? Компанию скептически настроенной девушке составят (неожиданно) священник и мутноватого вида «синий воротничок». Они сошлись, лед и пламень, то есть холодное научное знание и мистика — чета Кинг предлагает включиться в очередную увлекательную борьбу противоположностей.-- --Качество :WEB-DLRip 1080p
Формат: MKV
Видео кодек: H264
Видео: 7006Кбит/сек,1920х1080(16.9),в 24.000кадр/сек,AVC (High@L4)(CABAC/4 Ref Frames)--Аудио Кодек:AC3
Аудио #1:MVO LostFilm @DD5.1 AC3, 640 Kbps, 48.0 KHz, 6 ch- Lostfilm -Русский
Аудио #2:MVO TVShows @DD5.1 AC3, 384 Kbps, 48.0 KHz, 6 ch-TVShows -Русский
Аудио #3:MVO NewStudio @DD5.1 AC3, 384 Kbps, 48.0 KHz, 6 ch-NewStudio -Русский
Аудио #4:MVO HDRezka Studio @DD5.1 AC3, 384 Kbps, 48.0 KHz, 6 ch-HDRezka Studio -Русский
Аудио #5: Original@DD5.1 E-AC3 ,640 Kbps, 48.0 KHz, 6 ch - English - Оригинал--

Доп. информация:

Звуковая дорожка сделана путем наложения чистого голоса озвучивателей на центральный канал оригинальной дорожки. Качество идентично звуковой дорожке.
--

Список эпизодов сезона


1 сезон 1 серия - Пилот - Pilot
1 сезон 2 серия - 177 минут - 177 Minutes
1 сезон 3 серия - Три звезды - 3 Stars
1 сезон 4 серия - Роуз390 - Rose390
1 сезон 5 серия - 31 октября - October 31
1 сезон 6 серия - Пусть икс равно 9 - Let x = 9
1 сезон 7 серия - Ватиканская троица - Vatican III
1 сезон 8 серия - 2 отца - 2 Fathers
1 сезон 9 серия - Экзорцизм, часть вторая - Exorcism Part 2
1 сезон 10 серия - 7 поющих лебедей - 7 Swans a Singin'
1 сезон 11 серия - Палата 320 - Room 320
1 сезон 12 серия - Правосудие x 2 - Justice x 2
1 сезон 13 серия - Псалтырь 27 - Book 27
--

MediaInfo сезона

Общее
Уникальный идентификатор : 62143908167945383308660842611989442482 (0x2EC07B3A6BE0297822B6F043D2C26FB2)
Полное имя : C:\RussianPatriot\Зло - Evil\Evil.2019.S01_Н264_DD5.1_N.B_HD_1080_4xRus_Eng\Evil.2019.S01E01_Н264_DD5.1_N.B_HD_1080_4xRus_Eng.mkv
Формат : Matroska
Версия формата : Version 4
Размер файла : 2,92 Гбайт
Продолжительность : 44 м. 20 с.
Общий поток : 9441 Кбит/сек
Название фильма : Evil 2019 S01E01 @ Nikolai.Baranov & PIRATIYA
Дата кодирования : UTC 2019-11-03 11:04:28
Программа кодирования : mkvmerge v38.0.0 ('The Silent Type') 64-bit
Библиотека кодирования : libebml v1.3.9 + libmatroska v1.5.2 / Lavf58.20.100
Видео
Идентификатор : 1
Формат : AVC
Формат/Информация : Advanced Video Codec
Профиль формата : High@L4
Настройки формата : CABAC / 4 Ref Frames
Параметр CABAC формата : Да
Параметр RefFrames формата : 4 кадра
Идентификатор кодека : V_MPEG4/ISO/AVC
Продолжительность : 44 м. 20 с.
Битрейт : 7006 Кбит/сек
Ширина : 1920 пикселей
Высота : 1080 пикселей
Соотношение сторон : 16:9
Режим частоты кадров : Постоянный
Частота кадров : 24,000 кадра/сек
Цветовое пространство : YUV
Субдискретизация насыщенности : 4:2:0
Битовая глубина : 8 бит
Тип развёртки : Прогрессивная
Бит/(Пиксели*Кадры) : 0.141
Размер потока : 2,17 Гбайт (74%)
Заголовок : Evil.2019.S01E01_Н264_DD5.1_N.B_HD_1080_4xRus_Eng
Язык : Russian
Default : Да
Forced : Нет
Цветовой диапазон : Limited
Основные цвета : BT.709
Характеристики трансфера : BT.709
Коэффициенты матрицы : BT.709
Аудио #1
Идентификатор : 4
Формат : AC-3
Формат/Информация : Audio Coding 3
Коммерческое название : Dolby Digital
Идентификатор кодека : A_AC3
Продолжительность : 44 м. 19 с.
Вид битрейта : Постоянный
Битрейт : 640 Кбит/сек
Каналы : 6 каналов
ChannelLayout : L R C LFE Ls Rs
Частота : 48,0 КГц
Частота кадров : 31,250 кадров/сек (1536 SPF)
Метод сжатия : С потерями
Задержка видео : -83 мс.
Размер потока : 203 Мбайт (7%)
Заголовок : MVO LostFilm @DD5.1 AC3, 640 Kbps, 48.0 KHz, 6 ch
Язык : Russian
ServiceKind/String : Complete Main
Default : Да
Forced : Нет
Аудио #2
Идентификатор : 5
Формат : AC-3
Формат/Информация : Audio Coding 3
Коммерческое название : Dolby Digital
Идентификатор кодека : A_AC3
Продолжительность : 44 м. 20 с.
Вид битрейта : Постоянный
Битрейт : 384 Кбит/сек
Каналы : 6 каналов
ChannelLayout : L R C LFE Ls Rs
Частота : 48,0 КГц
Частота кадров : 31,250 кадров/сек (1536 SPF)
Метод сжатия : С потерями
Размер потока : 122 Мбайт (4%)
Заголовок : MVO TVShows @DD5.1 AC3, 384 Kbps, 48.0 KHz, 6 ch
Язык : Russian
ServiceKind/String : Complete Main
Default : Нет
Forced : Нет
Аудио #3
Идентификатор : 6
Формат : AC-3
Формат/Информация : Audio Coding 3
Коммерческое название : Dolby Digital
Идентификатор кодека : A_AC3
Продолжительность : 44 м. 20 с.
Вид битрейта : Постоянный
Битрейт : 384 Кбит/сек
Каналы : 6 каналов
ChannelLayout : L R C LFE Ls Rs
Частота : 48,0 КГц
Частота кадров : 31,250 кадров/сек (1536 SPF)
Метод сжатия : С потерями
Задержка видео : -83 мс.
Размер потока : 122 Мбайт (4%)
Заголовок : MVO NewStudio @DD5.1 AC3, 384 Kbps, 48.0 KHz, 6 ch
Язык : Russian
ServiceKind/String : Complete Main
Default : Нет
Forced : Нет
Аудио #4
Идентификатор : 7
Формат : AC-3
Формат/Информация : Audio Coding 3
Коммерческое название : Dolby Digital
Идентификатор кодека : A_AC3
Продолжительность : 44 м. 20 с.
Вид битрейта : Постоянный
Битрейт : 384 Кбит/сек
Каналы : 6 каналов
ChannelLayout : L R C LFE Ls Rs
Частота : 48,0 КГц
Частота кадров : 31,250 кадров/сек (1536 SPF)
Метод сжатия : С потерями
Задержка видео : -83 мс.
Размер потока : 122 Мбайт (4%)
Заголовок : MVO HDRezkaStudio @DD5.1 AC3, 384 Kbps, 48.0 KHz, 6 ch
Язык : Russian
ServiceKind/String : Complete Main
Default : Нет
Forced : Нет
Аудио #5
Идентификатор : 8
Формат : E-AC-3
Формат/Информация : Enhanced AC-3
Коммерческое название : Dolby Digital Plus
Идентификатор кодека : A_EAC3
Продолжительность : 44 м. 20 с.
Вид битрейта : Постоянный
Битрейт : 640 Кбит/сек
Каналы : 6 каналов
ChannelLayout : L R C LFE Ls Rs
Частота : 48,0 КГц
Частота кадров : 31,250 кадров/сек (1536 SPF)
Метод сжатия : С потерями
Размер потока : 203 Мбайт (7%)
Заголовок : Original@DD5.1 E-AC3 ,640 Kbps, 48.0 KHz, 6 ch
Язык : English
ServiceKind/String : Complete Main
Default : Нет
Forced : Нет
Текст #1
Идентификатор : 2
Формат : UTF-8
Идентификатор кодека : S_TEXT/UTF8
Идентификатор кодека/Информация : UTF-8 Plain Text
Продолжительность : 43 м. 43 с.
Битрейт : 78 бит/сек
ElementCount : 921
Размер потока : 25,0 Кбайт (0%)
Заголовок : Original - SDH
Язык : English
Default : Да
Forced : Нет
Текст #2
Идентификатор : 3
Формат : UTF-8
Идентификатор кодека : S_TEXT/UTF8
Идентификатор кодека/Информация : UTF-8 Plain Text
Продолжительность : 43 м. 43 с.
Битрейт : 72 бит/сек
ElementCount : 853
Размер потока : 23,3 Кбайт (0%)
Заголовок : Original
Язык : English
Default : Нет
Forced : Нет
Меню
00:00:00.083 : ru:Глава 01 / ru:Глава 01 / ru:Глава 01 / ru:Глава 01 / ru:Глава 01 / ru:Глава 01 / ru:Глава 01 / ru:Глава 01
--

Скриншоты

-- --

Как закачать отдельный файл

1. Открыть торрент
2. Снять галки с тех файлов торрента, которые мы не хотим закачивать. Оставляем только на нужных нам файлах (файле).
3. Нажать О.К.
В клиенте utorrent
Инструкция
1) Открыть торрент

2) Снять галки с тех файлов торрента, которые мы не хотим закачивать:
* либо вручную, снимая с каждого файла галку( скрин №1)
* либо, нажав кнопку "Снять метки (Select None)", сняв сразу со всех файлов(скрин №2)
№1

№2

Оставляем только на нужных нам файлах (файле).

3)Нажать О.К
-- -- --Внимание!!! 07.02. 2020. РАЗДАЧА ОБНОВЛЕНА. ДОБАВЛЕНА -13- СЕРИЯ ФИНАЛ СЕЗОНА. ОБНОВИТЕ ТОРЕНТ ФАЙЛ. ПРИЯТНОГО ПРОСМОТРА . Поблагодарить:
ЯД: 410017546713876
--Релиз от: Nikolai.Baranov & PIRATIYA -- -- -- --Время раздачи : 24/7---

_________________

Легко быть оптимистом, когда судьба не валит с ног тяжелыми ударами, а лишь иногда легонько шлепает по заднице.
[Торрент-статистика]
[Профиль]  [ЛС] 
Показать сообщения:    
Ответить на тему

Текущее время: Сегодня 13:55

Часовой пояс: GMT + 4



Вы не можете начинать темы
Вы не можете отвечать на сообщения
Вы не можете редактировать свои сообщения
Вы не можете удалять свои сообщения
Вы не можете голосовать в опросах
Вы не можете прикреплять файлы к сообщениям
Вы не можете скачивать файлы