Невероятное / Unbelievable (Сезон 1 , Серия 1-8 из 8) (Лиза Холоденко, Майкл Диннер) [2019,Детектив, криминал,WEB-DL,HEVC,HDR 1080р] [Dub VSI Moscow+TVShows+ENG]+[Subs Rus+ENG]

Ответить на тему
 
Автор
Сообщение

Враг Нароода ®

Пол:

Стаж: 1 год 10 месяцев

Сообщений: 142

Репутация: 153 [+] [-]

Откуда: Красногорск

Пост 02-Ноя-2019 19:21

[Цитировать] 

--Невероятное / Unbelievable Сезон 1 , Серия 1-8 из 8- Полный Комплект -- --Год выпуска: 2019
Выпущено: США , CBS Television Studios, Timberman-Beverly Productions
Жанр: УДетектив, криминал
Продолжительность: 01:00:00
Сезон: 1
Серия:1-8
Количество серий в сезоне:8--Озвучка #1:Дублированный - VSI Moscow - Русский
Озвучка #2:Профессиональный (многоголосый закадровый)- TVShows- Русский
Озвучка #7: Профессиональный многоголосый -Английский - Оригинал
Субтитры: Русские, English SDH
--Релиз Релиз Без Рекламы -MDB 8.5 --Режиссеры:
Лиза Холоденко, Майкл Диннер, Сюзанна Грант--В ролях: Лиза Холоденко, Майкл Диннер, Сюзанна Грант
В ролях: Тони Коллетт, Мерритт Уивер, Кейтлин Девер, Ванесса Белл Кэллоуэй, Дейл Дикки, Джон Хартманн, Остин Хеберт, Лиза Лапира, Кай Леннокс, Даниэль Макдональд
-- Этот сериал обещает рассказать не выдуманную историю, основанную на реальных событиях. Авторы сценария повествуют о некой девушке, которая обратилась в полицию. Подросток уверяет, что её изнасиловали. Она молит о том, чтобы негодяя нашли и наказали, однако на следующий же день передумывает и забирает заявление из полиции. Странное поведение девушки не могло не вызвать интерес со стороны представителей правоохранительных органов. Два детектива берутся за разбор этого дела с целью понять мотивы и причины обращения и отказа от расследования. Что же на самом деле скрывается за делом об изнасиловании?-- --Качество :WEB-DL - HEVC-HDR- 10bit - 1080p
Формат: MKV
Видео кодек: H265
Видео: 5690Кбит/сек,1920х1080(16.9),в 23.976кадр/сек, HEVC (Main10@L4@Main) , HDR10--Аудио Кодек:Аудио Кодек:AC3
Аудио #1: Dub -Rus-VSI Moscow @DD5.1 AC3, 640 Kbps, 48.0 KHz, 6 ch - VSI Moscow- Русский
Аудио #2: MVO TVShows @DD5.1 AC3, 384 Kbps, 48.0 KHz, 6 ch -TVShows- Русский
Аудио #3: Original@DD5.1 E-AC3 ,640 Kbps, 48.0 KHz, 6 ch - English - Оригинал-

Доп. информация:

Звуковая дорожка сделана путем наложения чистого голоса озвучивателей на центральный канал оригинальной дорожки. Качество идентично звуковой дорожке.
--

MediaInfo

Общее
Уникальный идентификатор : 59830406590103587814382005467414049466 (0x2D02EACB3D1296ED10C3B07E8B50B2BA)
Полное имя : C:\RussianPatriot\Невероятное - Unbelievable\Unbelievable.2019.S01_HEVC_HDR_DD5.1_N.B_WEB-DL_1080_Rus_Eng\Unbelievable.2019.S01E01_HEVC_HDR_DD5.1_N.B_WEB-DL_1080_2хRus_Eng.mkv
Формат : Matroska
Версия формата : Version 4
Размер файла : 3,00 Гбайт
Продолжительность : 58 м. 52 с.
Общий поток : 7306 Кбит/сек
Название фильма : Unbelievable 2019 S01E01 @ Nikolai.Baranov & PIRATIYA
Дата кодирования : UTC 2019-10-27 15:21:16
Программа кодирования : mkvmerge v38.0.0 ('The Silent Type') 64-bit
Библиотека кодирования : libebml v1.3.9 + libmatroska v1.5.2 / Lavf58.20.100
Видео
Идентификатор : 1
Формат : HEVC
Формат/Информация : High Efficiency Video Coding
Профиль формата : Main 10@L4@Main
HDR_Format/String : SMPTE ST 2086, HDR10 compatible
Идентификатор кодека : V_MPEGH/ISO/HEVC
Продолжительность : 58 м. 21 с.
Битрейт : 5690 Кбит/сек
Ширина : 1920 пикселей
Высота : 1080 пикселей
Соотношение сторон : 16:9
Режим частоты кадров : Постоянный
Частота кадров : 23,976 (24000/1001) кадра/сек
Цветовое пространство : YUV
Субдискретизация насыщенности : 4:2:0 (Type 2)
Битовая глубина : 10 бит
Бит/(Пиксели*Кадры) : 0.114
Размер потока : 2,32 Гбайт (77%)
Заголовок : Unbelievable.2019.S01E01_HEVC_HDR_DD5.1_N.B_WEB-DL_1080_2хRus_Eng
Язык : Russian
Default : Да
Forced : Нет
Цветовой диапазон : Limited
Основные цвета : BT.2020
Характеристики трансфера : PQ
Коэффициенты матрицы : BT.2020 non-constant
MasteringDisplay_ColorPrimaries : Display P3
MasteringDisplay_Luminance : min: 0.0001 cd/m2, max: 1000 cd/m2
MaxCLL : 1202 cd/m2
MaxFALL : 412 cd/m2
Аудио #1
Идентификатор : 5
Формат : AC-3
Формат/Информация : Audio Coding 3
Коммерческое название : Dolby Digital
Идентификатор кодека : A_AC3
Продолжительность : 58 м. 52 с.
Вид битрейта : Постоянный
Битрейт : 640 Кбит/сек
Каналы : 6 каналов
ChannelLayout : L R C LFE Ls Rs
Частота : 48,0 КГц
Частота кадров : 31,250 кадров/сек (1536 SPF)
Метод сжатия : С потерями
Задержка видео : -83 мс.
Размер потока : 270 Мбайт (9%)
Заголовок : Dub -Rus- (VSI Moscow @DD5.1 AC3, 640 Kbps, 48.0 KHz, 6 ch
Язык : Russian
ServiceKind/String : Complete Main
Default : Да
Forced : Нет
Аудио #2
Идентификатор : 6
Формат : AC-3
Формат/Информация : Audio Coding 3
Коммерческое название : Dolby Digital
Идентификатор кодека : A_AC3
Продолжительность : 58 м. 52 с.
Вид битрейта : Постоянный
Битрейт : 384 Кбит/сек
Каналы : 6 каналов
ChannelLayout : L R C LFE Ls Rs
Частота : 48,0 КГц
Частота кадров : 31,250 кадров/сек (1536 SPF)
Метод сжатия : С потерями
Задержка видео : -83 мс.
Размер потока : 162 Мбайт (5%)
Заголовок : MVO TVShows @DD5.1 AC3, 384 Kbps, 48.0 KHz, 6 ch
Язык : Russian
ServiceKind/String : Complete Main
Default : Нет
Forced : Да
Аудио #3
Идентификатор : 7
Формат : E-AC-3
Формат/Информация : Enhanced AC-3
Коммерческое название : Dolby Digital Plus
Идентификатор кодека : A_EAC3
Продолжительность : 58 м. 52 с.
Вид битрейта : Постоянный
Битрейт : 640 Кбит/сек
Каналы : 6 каналов
ChannelLayout : L R C LFE Ls Rs
Частота : 48,0 КГц
Частота кадров : 31,250 кадров/сек (1536 SPF)
Метод сжатия : С потерями
Задержка видео : -83 мс.
Размер потока : 270 Мбайт (9%)
Заголовок : Original@DD5.1 E-AC3 ,640 Kbps, 48.0 KHz, 6 ch
Язык : English
ServiceKind/String : Complete Main
Default : Нет
Forced : Нет
Текст #1
Идентификатор : 2
Формат : UTF-8
Идентификатор кодека : S_TEXT/UTF8
Идентификатор кодека/Информация : UTF-8 Plain Text
Продолжительность : 32 м. 56 с.
Битрейт : 2 бит/сек
ElementCount : 15
Размер потока : 637 байт (0%)
Заголовок : Russian-Forced
Язык : Russian
Default : Да
Forced : Нет
Текст #2
Идентификатор : 3
Формат : UTF-8
Идентификатор кодека : S_TEXT/UTF8
Идентификатор кодека/Информация : UTF-8 Plain Text
Продолжительность : 58 м. 9 с.
Битрейт : 85 бит/сек
ElementCount : 894
Размер потока : 36,3 Кбайт (0%)
Заголовок : Russian
Язык : Russian
Default : Нет
Forced : Нет
Текст #3
Идентификатор : 4
Формат : UTF-8
Идентификатор кодека : S_TEXT/UTF8
Идентификатор кодека/Информация : UTF-8 Plain Text
Продолжительность : 55 м. 21 с.
Битрейт : 67 бит/сек
ElementCount : 923
Размер потока : 27,4 Кбайт (0%)
Заголовок : Original - SDH
Язык : English
Default : Нет
Forced : Нет
Меню
00:00:00.083 : ru:Глава 01 / ru:Глава 01 / ru:Глава 01 / ru:Глава 01 / ru:Глава 01 / ru:Глава 01 / ru:Глава 01
--

Скриншоты

-- -- -- --Релиз от: Nikolai.Baranov & PIRATIYA . Поблагодарить:
ЯД: 410017546713876
-- -- -- --Время раздачи : 24/7--

_________________

Легко быть оптимистом, когда судьба не валит с ног тяжелыми ударами, а лишь иногда легонько шлепает по заднице.
[Торрент-статистика]
[Профиль]  [ЛС] 
Показать сообщения:    
Ответить на тему

Текущее время: Сегодня 08:53

Часовой пояс: GMT + 4



Вы не можете начинать темы
Вы не можете отвечать на сообщения
Вы не можете редактировать свои сообщения
Вы не можете удалять свои сообщения
Вы не можете голосовать в опросах
Вы не можете прикреплять файлы к сообщениям
Вы не можете скачивать файлы