Король Лев / The Lion King ( Джон Фавро) [2019, Мультфильм, мюзикл, драма, приключения, семейный, ремейк,BluRay 1080р] [iTunes,Rus+ENG]+[Subs Rus+ENG]

Ответить на тему
 
Автор
Сообщение

Враг Нароода ®

Пол:

Стаж: 1 год 10 месяцев

Сообщений: 142

Репутация: 153 [+] [-]

Откуда: Красногорск

Пост 13-Окт-2019 19:20

[Цитировать] 

-- Король Лев / The Lion King -- --Год выпуска: 2019
Выпущено: США , Walt Disney Pictures, Fairview Entertainment
Жанр: Мультфильм, мюзикл, драма, приключения, семейный, ремейк
Продолжительность: 01:58:14 --Озвучка #1: Дублированный - Русский (DUB, iTunes)
Озвучка #2: Профессиональный многоголосый -Английский - Оригинал
Субтитры: Русские ,English, English SDH
--Релиз Без Рекламы --MDB 7.1 --Режиссеры:
Джон Фавро--В ролях: Джеймс Эрл Джонс, Дональд Гловер, Чиветел Эджиофор, Джон Оливер, Джон Кани, Элфри Вудард, Джейдон Маккрэри, Шахади Райт Джозеф, Пенни Джонсон, Кигэн-Майкл Ки-- История об отважном львенке по имени Симба. Знакомые с детства герои взрослеют, влюбляются, познают себя и окружающий мир, совершают ошибки и делают правильный выбор.-- --Качество : BluRay - HEVC 10bit - 1080p
Формат:MKV
Видео кодек: H265
Видео: 3015Кбит/сек,1920х1080(16.9),в 23.976кадр/сек,, HEVC (Main10@L4@Main)-Аудио Кодек:Аудио Кодек: AC3 - DTS
Аудио #1: Dub -Rus-iTunes @DD5.1 AC3, 384 Kbps, 48.0 KHz, 6 ch - Русский (DUB, iTunes)
Аудио #2:Dub -Rus-iTunes @DD5.1 DTS, 3840 Kbps, 48.0 KHz, 6 ch - Русский (DUB, iTunes )
Аудио #3: Original@DD5.1 AC3 ,640 Kbps, 48.0 KHz, 6 ch - - English
Аудио #4: Original@TrueHD DTS ,4929 Kbps, 48.0 KHz, 8 ch - - English--

Доп. информация:

Звуковая дорожка сделана путем наложения чистого голоса озвучивателей на центральный канал оригинальной дорожки. Качество идентично звуковой дорожке.
--

MediaInfo

Общее
Уникальный идентификатор : 174641730354657591807204734935583198876 (0x8362C617F3765A9A2DD63A6FF5288E9C)
Полное имя : C:\RussianPatriot\Король Лев - The Lion King\The.Lion.King.2019_HEVC- 10Bit_Н265_DD5.1_N.B_BluRay_1080_Rus_Eng\The.Lion.King.2019_HEVC- 10Bit_Н265_DD5.1_N.B_BluRay_1080_Rus_Eng.mkv
Формат : Matroska
Версия формата : Version 4
Размер файла : 10,8 Гбайт
Продолжительность : 1 ч. 58 м.
Режим общего битрейта : Переменный
Общий поток : 13,0 Мбит/сек
Название фильма : The Lion King 2019 @ Nikolai.Baranov & PIRATIYA
Дата кодирования : UTC 2019-10-13 12:34:04
Программа кодирования : mkvmerge v38.0.0 ('The Silent Type') 64-bit
Библиотека кодирования : libebml v1.3.9 + libmatroska v1.5.2 / Lavf58.20.100
Обложка : Yes
Attachments : small_cover.jpg / small_cover_land.jpg / cover.jpg / cover_land.jpg / small_cover.jpg / small_cover_land.jpg / cover.jpg / cover_land.jpg
Видео
Идентификатор : 1
Формат : HEVC
Формат/Информация : High Efficiency Video Coding
Профиль формата : Main 10@L4@Main
Идентификатор кодека : V_MPEGH/ISO/HEVC
Продолжительность : 1 ч. 58 м.
Битрейт : 3015 Кбит/сек
Ширина : 1920 пикселей
Высота : 1080 пикселей
Соотношение сторон : 16:9
Режим частоты кадров : Постоянный
Частота кадров : 23,976 (24000/1001) кадра/сек
Цветовое пространство : YUV
Субдискретизация насыщенности : 4:2:0
Битовая глубина : 10 бит
Бит/(Пиксели*Кадры) : 0.061
Размер потока : 2,49 Гбайт (23%)
Заголовок : The.Lion.King.2019_HEVC- 10Bit_Н265_DD5.1_N.B_BluRay_1080_Rus_Eng
Библиотека кодирования : x265 3.1+11-de920e0a3183:[Windows][GCC 9.1.1][64 bit] 10bit
Настройки программы : rc=abr / bitrate=3014 / qcomp=0.60 / qpstep=4 / qpmax=69 / qpmin=0 / no-lossless / no-cu-lossless / ipratio=1.40 / pbratio=1.30 / aq-mode=1 / aq-strength=1.00 / psy-rd=2.00 / psy-rdoq=0.00 / rdoq-level=2 / cbqpoffs=0 / crqpoffs=0 / ctu=64 / min-cu-size=8 / ref=3 / limit-refs=1 / no-limit-modes / me=1 / subme=2 / merange=57 / no-hme / rd=3 / no-rd-refine / no-ssim-rd / rdpenalty=0 / deblock=0:0 / min-keyint=23 / keyint=250 / bframes=4 / bframe-bias=0 / b-adapt=2 / b-intra / b-pyramid / cutree / max-merge=3 / no-fades / weightp / no-weightb / no-rect / no-amp / no-sao / no-limit-sao / no-sao-non-deblock / early-skip / no-splitrd-skip / rskip / no-tskip / no-tskip-fast / no-fast-intra / scenecut=40 / scenecut-bias=0.05 / rc-lookahead=20 / gop-lookahead=0 / lookahead-slices=6 / max-tu-size=32 / tu-inter-depth=1 / tu-intra-depth=1 / limit-tu=0 / qg-size=32 / radl=0 / open-gop / no-hevc-aq / no-aq-motion / no-dynamic-refine / dynamic-rd=0.00 / nr-intra=0 / nr-inter=0 / no-strong-intra-smoothing / constrained-intra / no-strict-cbr / no-const-vbv / no-rc-grain / wpp / no-pmode / no-pme / no-psnr / no-ssim / signhide / stats-write=0 / stats-read=2 / cplxblur=20.0 / qblur=0.5 / zone-count=0 / input-csp=1 / input-res=1920x1080 / interlace=0 / total-frames=170118 / frame-threads=5 / level-idc=0 / high-tier=1 / uhd-bd=0 / no-analyze-src-pics / no-allow-non-conformance / no-repeat-headers / annexb / no-aud / no-hrd / info / hash=0 / temporal-mvp / no-temporal-layers / no-splice / no-intra-refresh / sar=0 / overscan=0 / videoformat=5 / range=0 / colorprim=2 / transfer=2 / colormatrix=2 / chromaloc=0 / display-window=0cll=0,0 / min-luma=0 / max-luma=1023 / log2-max-poc-lsb=8 / vui-timing-info / vui-hrd-info / slices=1 / no-opt-qp-pps / no-opt-ref-list-length-pps / no-multi-pass-opt-rps / no-opt-cu-delta-qp / no-hdr / no-hdr-opt / no-dhdr10-opt / no-idr-recovery-sei / analysis-reuse-level=5 / scale-factor=0 / refine-intra=0 / refine-inter=0 / refine-mv=0 / refine-ctu-distortion=0 / refine-analysis-type=0 / ctu-info=0 / copy-pic=1 / max-ausize-factor=1.0 / no-single-sei / no-svt / no-field / no-lowpass-dct / cpuid=1111039 / numa-pools=20,20 / log-level=2 / qp-adaptation-range=1.00
Язык : Russian
Default : Да
Forced : Нет
Аудио #1
Идентификатор : 2
Формат : AC-3
Формат/Информация : Audio Coding 3
Коммерческое название : Dolby Digital
Идентификатор кодека : A_AC3
Продолжительность : 1 ч. 58 м.
Вид битрейта : Постоянный
Битрейт : 384 Кбит/сек
Каналы : 6 каналов
ChannelLayout : L R C LFE Ls Rs
Частота : 48,0 КГц
Частота кадров : 31,250 кадров/сек (1536 SPF)
Метод сжатия : С потерями
Размер потока : 325 Мбайт (3%)
Заголовок : Dub -Rus-iTunes @DD5.1 AC3, 384 Kbps, 48.0 KHz, 6 ch
Язык : Russian
ServiceKind/String : Complete Main
Default : Да
Forced : Нет
Аудио #2
Идентификатор : 3
Формат : DTS
Формат/Информация : Digital Theater Systems
Идентификатор кодека : A_DTS
Продолжительность : 1 ч. 58 м.
Вид битрейта : Постоянный
Битрейт : 3968 Кбит/сек
Каналы : 6 каналов
ChannelLayout : C L R Ls Rs LFE
Частота : 48,0 КГц
Частота кадров : 46,875 кадров/сек (1024 SPF)
Битовая глубина : 16 бит
Метод сжатия : С потерями
Задержка видео : -83 мс.
Размер потока : 3,28 Гбайт (30%)
Заголовок : Dub -Rus-iTunes @DD5.1 DTS, 3840 Kbps, 48.0 KHz, 6 ch
Язык : Russian
Default : Нет
Forced : Нет
Аудио #3
Идентификатор : 6
Формат : AC-3
Формат/Информация : Audio Coding 3
Коммерческое название : Dolby Digital
Идентификатор кодека : A_AC3
Продолжительность : 1 ч. 58 м.
Вид битрейта : Постоянный
Битрейт : 640 Кбит/сек
Каналы : 6 каналов
ChannelLayout : L R C LFE Ls Rs
Частота : 48,0 КГц
Частота кадров : 31,250 кадров/сек (1536 SPF)
Метод сжатия : С потерями
Задержка видео : -83 мс.
Размер потока : 541 Мбайт (5%)
Заголовок : Original@DD5.1 AC3 ,640 Kbps, 48.0 KHz, 6 ch
Язык : English
ServiceKind/String : Complete Main
Default : Нет
Forced : Нет
Аудио #4
Идентификатор : 7
Формат : MLP FBA 16-ch
Формат/Информация : Meridian Lossless Packing FBA with 16-channel presentation
Коммерческое название : Dolby TrueHD with Dolby Atmos
Идентификатор кодека : A_TRUEHD
Продолжительность : 1 ч. 58 м.
Вид битрейта : Переменный
Битрейт : 4929 Кбит/сек
Максимальный битрейт : 7332 Кбит/сек
Каналы : 8 каналов
ChannelLayout : L R C LFE Ls Rs Lb Rb
Частота : 48,0 КГц
Частота кадров : 1200,000 кадров/сек (40 SPF)
Метод сжатия : Без потерь
Задержка видео : -83 мс.
Размер потока : 4,07 Гбайт (38%)
Заголовок : Original@TrueHD DTS ,4929 Kbps, 48.0 KHz, 8 ch
Язык : English
Default : Нет
Forced : Нет
NumberOfDynamicObjects : 13
BedChannelCount/String : 1 канал
BedChannelConfiguration : LFE
Текст #1
Идентификатор : 4
Формат : UTF-8
Идентификатор кодека : S_TEXT/UTF8
Идентификатор кодека/Информация : UTF-8 Plain Text
Продолжительность : 1 ч. 55 м.
Битрейт : 68 бит/сек
ElementCount : 1371
Размер потока : 58,1 Кбайт (0%)
Заголовок : Russian-Forced
Язык : Russian
Default : Да
Forced : Нет
Текст #2
Идентификатор : 5
Формат : UTF-8
Идентификатор кодека : S_TEXT/UTF8
Идентификатор кодека/Информация : UTF-8 Plain Text
Продолжительность : 1 ч. 47 м.
Битрейт : 89 бит/сек
ElementCount : 1642
Размер потока : 70,4 Кбайт (0%)
Заголовок : Russian-SDH
Язык : Russian
Default : Нет
Forced : Нет
Текст #3
Идентификатор : 8
Формат : PGS
Режим смешивания : zlib
Идентификатор кодека : S_HDMV/PGS
Идентификатор кодека/Информация : Picture based subtitle format used on BDs/HD-DVDs
Продолжительность : 1 ч. 52 м.
Битрейт : 37,3 Кбит/сек
ElementCount : 3420
Размер потока : 29,8 Мбайт (0%)
Заголовок : Original - SDH
Язык : English
Default : Нет
Forced : Нет
Текст #4
Идентификатор : 9
Формат : UTF-8
Идентификатор кодека : S_TEXT/UTF8
Идентификатор кодека/Информация : UTF-8 Plain Text
Продолжительность : 1 ч. 52 м.
Битрейт : 55 бит/сек
ElementCount : 1738
Размер потока : 45,1 Кбайт (0%)
Заголовок : Original - SDH
Язык : English
Default : Нет
Forced : Нет
Текст #5
Идентификатор : 10
Формат : UTF-8
Идентификатор кодека : S_TEXT/UTF8
Идентификатор кодека/Информация : UTF-8 Plain Text
Продолжительность : 1 ч. 50 м.
Битрейт : 49 бит/сек
ElementCount : 1547
Размер потока : 40,0 Кбайт (0%)
Заголовок : Original
Язык : English
Default : Нет
Forced : Нет
Меню
00:00:00.000 : en:Chapter 01
00:04:50.499 : en:Chapter 02
00:10:51.067 : en:Chapter 03
00:17:47.692 : en:Chapter 04
00:23:53.015 : en:Chapter 05
00:30:00.132 : en:Chapter 06
00:33:05.066 : en:Chapter 07
00:37:09.310 : en:Chapter 08
00:43:42.912 : en:Chapter 09
00:50:47.336 : en:Chapter 10
00:55:02.716 : en:Chapter 11
00:59:48.460 : en:Chapter 12
01:06:27.233 : en:Chapter 13
01:14:32.093 : en:Chapter 14
01:18:26.410 : en:Chapter 15
01:23:07.900 : en:Chapter 16
01:28:04.654 : en:Chapter 17
01:33:10.877 : en:Chapter 18
01:37:13.745 : en:Chapter 19
01:44:39.190 : en:Chapter 20
01:47:47.336 : en:Chapter 21
--

Скриншоты

-- -- -- --Релиз от: Nikolai.Baranov & PIRATIYA . Поблагодарить:
ЯД: 410017546713876
-- -- -- --Время раздачи : 24/7--

_________________

Легко быть оптимистом, когда судьба не валит с ног тяжелыми ударами, а лишь иногда легонько шлепает по заднице.
[Торрент-статистика]
[Профиль]  [ЛС] 
Показать сообщения:    
Ответить на тему

Текущее время: Сегодня 09:16

Часовой пояс: GMT + 4



Вы не можете начинать темы
Вы не можете отвечать на сообщения
Вы не можете редактировать свои сообщения
Вы не можете удалять свои сообщения
Вы не можете голосовать в опросах
Вы не можете прикреплять файлы к сообщениям
Вы не можете скачивать файлы