Ходячие мертвецы / The Walking Dead (Сезон 10 , Серия 1-7 из 16) (Эрнест Р. Дикерсон, Гай Ферленд) [2019,Мистика, триллер, ужасы, зомби, постапокалипсис,WEB-DLRip 1080p] [LostFilm+TVShows+Нота+ENG]+[Subs Rus , ENG]

Ответить на тему
 
Автор
Сообщение

Враг Нароода ®

Пол:

Стаж: 1 год 11 месяцев

Сообщений: 149

Репутация: 165 [+] [-]

Откуда: Красногорск

Пост 10-Окт-2019 13:00

[Цитировать] 

-- -- Ходячие мертвецы / The Walking Dead Сезон 10 , Серия 1-7 из 16 -- --Год выпуска: 2019
Выпущено: США , AMC Studios, American Movie Classics (AMC), Circle of Confusion
Жанр: Мистика, триллер, ужасы, зомби, постапокалипсис
Продолжительность: 00:45:00
Сезон: 10
Серия:1-7
Количество серий в сезоне:16--Озвучка #1: Профессиональный многоголосый - LostFilm - Русский
Озвучка #2: Профессиональный многоголосый - TVShows - Русский
Озвучка #3: Профессиональный многоголосый - Нота по заказу телеканала FOX - Русский
Озвучка #4: Профессиональный многоголосый -Английский - Оригинал
Субтитры: Русские, ,English, English SDH
--Релиз Без Рекламы --MDB 8.3 --Режиссеры:
Эрнест Р. Дикерсон, Гай Ферленд, Гвинет Хордер-Пэйтон, Майкл Словис--В ролях: : Эндрю Линкольн, Норман Ридус, Стивен Юн, Лорен Коэн, Чендлер Риггз, Данай Джекесай Гурира, Мелисса Сюзанн МакБрайд, Майкл Кадлитц, Ленни Джеймс, Сонеква Мартин, Джош МакДермитт, Кристиан Серратос, Аланна Мастерсон, Том Пэйн, Сет Гиллиам, Александра Брекенридж, Това Фелдшухй-- Сериал рассказывает историю жизни семьи шерифа после того, как «зомби» — эпидемия апокалиптических масштабов захлестнула земной шар. Шериф Рик Граймс путешествует со своей семьей и небольшой группой выживших в поисках безопасного места для жизни. Но постоянный страх смерти каждый день приносит тяжелые потери, заставляя героев почувствовать глубины человеческой жестокости. Рик пытается спасти свою семью, и открывает для себя, что всепоглощающий страх тех, кто выжил, может быть опаснее бессмысленных мертвецов, бродящих по земле.
Сюжет : Действие сериала разворачивается в первые месяцы после наступления зомби-апокалипсиса. Помощник шерифа Рик Граймс (Эндрю Линкольн) приходит в себя после длительной комы и понимает, что находится в опустевшей и разоренной больнице совершенно один. За то время, пока он находился без сознания, привычный мир был разрушен страшной эпидемией, о причинах наступления которой никто не знает. По дороге домой, где Рик надеется встретить жену и сына, он натыкается на множество трупов — как лежащих на земле, так и уже оживших. Затем Граймс знакомится со своим соседом Морганом (Ленни Джеймс), который объясняет ему новые правила жизни: не шуметь, не привлекать внимание, а в случае нападения мертвеца сделать все, чтобы его уничтожить. И ни при каких условиях не допускать укусов — жертвы атаки тоже превращаются в ходячих мертвецов. Не найдя дома родных, Рик отправляется в Атланту на поиски семьи. Он еще не знает, что впереди его ждут долгие скитания по уничтоженной стране в компании самых разных людей, для которых он станет лидером и защитником. Более того, никто из группы выживших не подозревает, что ходячие — это еще не самое страшное зло нового мира....-- --Качество :WEB-DLRip - HEVC 10bit - 1080p
Формат: MKV
Видео кодек: H265
Видео: 6220Кбит/сек,1920х1080(16.9),в 23.976кадр/сек, HEVC (Main10@L4@Main)--Аудио Кодек:AC3
Аудио #1:MVO LostFilm @DD5.1 AC3, 640 Kbps, 48.0 KHz, 6 ch- Lostfilm -Русский
Аудио #2:MVO TVShows @DD5.1 AC3, 384 Kbps, 48.0 KHz, 6 ch-TVShows -Русский
Аудио #3:MVO Нота @DD5.1 AC3, 384 Kbps, 48.0 KHz, 6 ch- Нота -Русский
Аудио #4: Original@DD5.1 E-AC3 ,640 Kbps, 48.0 KHz, 6 ch - English - Оригинал--

Доп. информация:

Звуковая дорожка сделана путем наложения чистого голоса озвучивателей на центральный канал оригинальной дорожки. Качество идентично звуковой дорожке.
--

Список эпизодов сезона


10 сезон 1 серия - Границы, которые мы пересекли - Lines We Cross
10 сезон 2 серия - Мы — конец света - We Are the End of the World
10 сезон 3 серия - Призраки - Ghosts
10 сезон 4 серия - Заткните Шепчущих - Silence the Whisperers
10 сезон 5 серия - Как и всегда - What It Always Is
10 сезон 6 серия - Связи - Bonds
10 сезон 7 серия - Открой глаза - Open Your Eyes
--

MediaInfo сезона

Общее
Уникальный идентификатор : 284941895584368930165861311735298550212 (0xD65DD01AFA2B24ADCACA0913CC0C69C4)
Полное имя : C:\Users\Russian Patriot\Downloads\Nikolai.Baranov & PIRATIYA\Ходячие мертвецы - The Walking Dead\The.Walking.Dead_2019_S10_HEVC- 10Bit_Н265_DD5.1_N.B_HD_1080_3xRus_Eng\The.Walking.Dead.S10E01_HEVC_Н265_DD5.1_N.B_HD_1080_3xRus_Eng.mkv
Формат : Matroska
Версия формата : Version 4
Размер файла : 2,98 Гбайт
Продолжительность : 51 м. 33 с.
Общий поток : 8271 Кбит/сек
Название фильма : The Walking Dead 2019 S10E01 @ Nikolai.Baranov & PIRATIYA
Дата кодирования : UTC 2019-10-09 17:31:02
Программа кодирования : mkvmerge v38.0.0 ('The Silent Type') 64-bit
Библиотека кодирования : libebml v1.3.9 + libmatroska v1.5.2 / Lavf58.20.100
Видео
Идентификатор : 1
Формат : HEVC
Формат/Информация : High Efficiency Video Coding
Профиль формата : Main 10@L4@Main
Идентификатор кодека : V_MPEGH/ISO/HEVC
Продолжительность : 51 м. 33 с.
Битрейт : 6220 Кбит/сек
Ширина : 1920 пикселей
Высота : 1080 пикселей
Соотношение сторон : 16:9
Режим частоты кадров : Постоянный
Частота кадров : 23,976 (24000/1001) кадра/сек
Цветовое пространство : YUV
Субдискретизация насыщенности : 4:2:0
Битовая глубина : 10 бит
Бит/(Пиксели*Кадры) : 0.125
Размер потока : 2,24 Гбайт (75%)
Заголовок : The.Walking.Dead.S10E01_HEVC_Н265_DD5.1_N.B_HD_1080_3xRus_Eng
Библиотека кодирования : x265 2.9+8-27d8424c799d:[Windows][MSVC 1915][64 bit] 10bit
Настройки программы : cpuid=1111039 / frame-threads=2 / numa-pools=6 / wpp / no-pmode / no-pme / no-psnr / no-ssim / log-level=2 / input-csp=1 / input-res=1920x1080 / interlace=0 / total-frames=0 / level-idc=0 / high-tier=1 / uhd-bd=0 / ref=4 / no-allow-non-conformance / no-repeat-headers / annexb / no-aud / no-hrd / info / hash=0 / no-temporal-layers / open-gop / min-keyint=23 / keyint=250 / gop-lookahead=0 / bframes=8 / b-adapt=2 / b-pyramid / bframe-bias=0 / rc-lookahead=100 / lookahead-slices=4 / scenecut=40 / radl=0 / no-intra-refresh / ctu=64 / min-cu-size=8 / no-rect / no-amp / max-tu-size=32 / tu-inter-depth=1 / tu-intra-depth=1 / limit-tu=0 / rdoq-level=2 / dynamic-rd=0.00 / no-ssim-rd / signhide / no-tskip / nr-intra=0 / nr-inter=0 / no-constrained-intra / no-strong-intra-smoothing / max-merge=3 / limit-refs=3 / limit-modes / me=3 / subme=5 / merange=57 / temporal-mvp / weightp / no-weightb / no-analyze-src-pics / deblock=0:0 / sao / no-sao-non-deblock / rd=4 / no-early-skip / rskip / no-fast-intra / no-tskip-fast / no-cu-lossless / no-b-intra / no-splitrd-skip / rdpenalty=0 / psy-rd=1.30 / psy-rdoq=2.00 / no-rd-refine / no-lossless / cbqpoffs=0 / crqpoffs=0 / rc=crf / crf=22.0 / qcomp=0.60 / qpstep=4 / stats-write=0 / stats-read=0 / ipratio=1.40 / pbratio=1.30 / aq-mode=2 / aq-strength=1.10 / cutree / zone-count=0 / no-strict-cbr / qg-size=32 / no-rc-grain / qpmax=69 / qpmin=0 / no-const-vbv / sar=1 / overscan=0 / videoformat=5 / range=0 / colorprim=2 / transfer=2 / colormatrix=2 / chromaloc=0 / display-window=0 / max-cll=0,0 / min-luma=0 / max-luma=1023 / log2-max-poc-lsb=8 / vui-timing-info / vui-hrd-info / slices=1 / no-opt-qp-pps / no-opt-ref-list-length-pps / no-multi-pass-opt-rps / scenecut-bias=0.05 / no-opt-cu-delta-qp / no-aq-motion / no-hdr / no-hdr-opt / no-dhdr10-opt / no-idr-recovery-sei / analysis-reuse-level=5 / scale-factor=0 / refine-intra=0 / refine-inter=0 / refine-mv=0 / no-limit-sao / ctu-info=0 / no-lowpass-dct / refine-mv-type=0 / copy-pic=1 / max-ausize-factor=1.0 / no-dynamic-refine / no-single-sei
Язык : Russian
Default : Да
Forced : Нет
Аудио #1
Идентификатор : 4
Формат : AC-3
Формат/Информация : Audio Coding 3
Коммерческое название : Dolby Digital
Идентификатор кодека : A_AC3
Продолжительность : 51 м. 33 с.
Вид битрейта : Постоянный
Битрейт : 640 Кбит/сек
Каналы : 6 каналов
ChannelLayout : L R C LFE Ls Rs
Частота : 48,0 КГц
Частота кадров : 31,250 кадров/сек (1536 SPF)
Метод сжатия : С потерями
Задержка видео : -83 мс.
Размер потока : 236 Мбайт (8%)
Заголовок : MVO LostFilm @DD5.1 AC3, 640 Kbps, 48.0 KHz, 6 ch
Язык : Russian
ServiceKind/String : Complete Main
Default : Да
Forced : Нет
Аудио #2
Идентификатор : 5
Формат : AC-3
Формат/Информация : Audio Coding 3
Коммерческое название : Dolby Digital
Идентификатор кодека : A_AC3
Продолжительность : 51 м. 33 с.
Вид битрейта : Постоянный
Битрейт : 384 Кбит/сек
Каналы : 6 каналов
ChannelLayout : L R C LFE Ls Rs
Частота : 48,0 КГц
Частота кадров : 31,250 кадров/сек (1536 SPF)
Метод сжатия : С потерями
Задержка видео : -83 мс.
Размер потока : 142 Мбайт (5%)
Заголовок : MVO TVShows @DD5.1 AC3, 384 Kbps, 48.0 KHz, 6 ch
Язык : Russian
ServiceKind/String : Complete Main
Default : Нет
Forced : Да
Аудио #3
Идентификатор : 6
Формат : AC-3
Формат/Информация : Audio Coding 3
Коммерческое название : Dolby Digital
Идентификатор кодека : A_AC3
Продолжительность : 51 м. 33 с.
Вид битрейта : Постоянный
Битрейт : 384 Кбит/сек
Каналы : 6 каналов
ChannelLayout : L R C LFE Ls Rs
Частота : 48,0 КГц
Частота кадров : 31,250 кадров/сек (1536 SPF)
Метод сжатия : С потерями
Задержка видео : -83 мс.
Размер потока : 142 Мбайт (5%)
Заголовок : MVO Нота @DD5.1 AC3, 384 Kbps, 48.0 KHz, 6 ch
Язык : Russian
ServiceKind/String : Complete Main
Default : Нет
Forced : Нет
Аудио #4
Идентификатор : 7
Формат : E-AC-3
Формат/Информация : Enhanced AC-3
Коммерческое название : Dolby Digital Plus
Идентификатор кодека : A_EAC3
Продолжительность : 51 м. 32 с.
Вид битрейта : Постоянный
Битрейт : 640 Кбит/сек
Каналы : 6 каналов
ChannelLayout : L R C LFE Ls Rs
Частота : 48,0 КГц
Частота кадров : 31,250 кадров/сек (1536 SPF)
Метод сжатия : С потерями
Размер потока : 236 Мбайт (8%)
Заголовок : Original@DD5.1 E-AC3 ,640 Kbps, 48.0 KHz, 6 ch
Язык : English
ServiceKind/String : Complete Main
Default : Нет
Forced : Нет
Текст #1
Идентификатор : 2
Формат : UTF-8
Идентификатор кодека : S_TEXT/UTF8
Идентификатор кодека/Информация : UTF-8 Plain Text
Продолжительность : 44 м. 51 с.
Битрейт : 4 бит/сек
ElementCount : 30
Размер потока : 1,34 Кбайт (0%)
Заголовок : Russian-Forced
Язык : Russian
Default : Да
Forced : Нет
Текст #2
Идентификатор : 3
Формат : UTF-8
Идентификатор кодека : S_TEXT/UTF8
Идентификатор кодека/Информация : UTF-8 Plain Text
Продолжительность : 49 м. 35 с.
Битрейт : 78 бит/сек
ElementCount : 658
Размер потока : 28,5 Кбайт (0%)
Заголовок : Russian
Язык : Russian
Default : Нет
Forced : Нет
Текст #3
Идентификатор : 8
Формат : UTF-8
Идентификатор кодека : S_TEXT/UTF8
Идентификатор кодека/Информация : UTF-8 Plain Text
Продолжительность : 51 м. 21 с.
Битрейт : 56 бит/сек
ElementCount : 967
Размер потока : 21,3 Кбайт (0%)
Заголовок : Original - SDH
Язык : English
Default : Нет
Forced : Нет
Текст #4
Идентификатор : 9
Формат : UTF-8
Идентификатор кодека : S_TEXT/UTF8
Идентификатор кодека/Информация : UTF-8 Plain Text
Продолжительность : 49 м. 7 с.
Битрейт : 48 бит/сек
ElementCount : 655
Размер потока : 17,6 Кбайт (0%)
Заголовок : Original
Язык : English
Default : Нет
Forced : Нет
Меню
00:00:00.083 : ru:Глава 01 / ru:Глава 01 / ru:Глава 01 / ru:Глава 01 / ru:Глава 01 / ru:Глава 01 / ru:Глава 01 / ru:Глава 01 / ru:Глава 01
--

Скриншоты

-- --Внимание! Раздача пополняется по мере выхода новых серий!--

Внимание! Раздача ведётся путём добавления новых серий!

Раздача ведётся путём добавления новых серий; при каждом добавлении создётся новый торрент.
Чтобы начать докачку новой серии, пользователям необходимо сделать следующее:
1. остановить скачивание,
2. удалить старый торрент у себя из клиента (старые серии удалять не надо),
3. скачать новый торрент и запустить его у себя в клиенте вместо старого, при этом указать клиенту путь в старую папку, куда и должно происходить скачивание новых серий.
Ваш клиент при этом должен произвести хеширование (проверку) старой папки (если не производит сам - помогите ему сделать это), и будет докачивать только те серии которых у вас ещё нет. Старые серии при этом не удаляются, а продолжают раздаваться!
Eсли вы уже удалили старые серии, то предотвратить повторную закачку старых серий можно, отжав галочку в соответсвующих местах при запуске нового торрента. По возможности, желательно не удалять старые серии как можно дольше, чтобы релизёр не столько продолжал раздавать старые серии, а смог сконцентрироваться на новых.
Совет для тех, кто не хочет ждать перехеширования:
Создайте ещё одну папку рядом с папкой сериала (рядом, а не в ней!!!). Каждую новую серию после удачной загрузки копируйте в новую папку так чтобы ваша основная папка всегда была пуста. Когда ваш новый торрент предложит вам закачать все файлы, выберете только последнюю. Для сидирования же укажите адрес новой папки.
Как закачать отдельный файл из торрента или докачать ранее пропущенные файлы торрента!

Как закачать отдельный файл

1. Открыть торрент
2. Снять галки с тех файлов торрента, которые мы не хотим закачивать. Оставляем только на нужных нам файлах (файле).
3. Нажать О.К.
В клиенте utorrent
Инструкция
1) Открыть торрент

2) Снять галки с тех файлов торрента, которые мы не хотим закачивать:
* либо вручную, снимая с каждого файла галку( скрин №1)
* либо, нажав кнопку "Снять метки (Select None)", сняв сразу со всех файлов(скрин №2)
№1

№2

Оставляем только на нужных нам файлах (файле).

3)Нажать О.К
-- -- --Внимание!!! 21.11. 2019. РАЗДАЧА ОБНОВЛЕНА. ДОБАВЛЕНА - 6-7- СЕРИЯ ОБНОВИТЕ ТОРЕНТ ФАЙЛ. ПРИЯТНОГО ПРОСМОТРА . Поблагодарить:
ЯД: 410017546713876
--Релиз от: Nikolai.Baranov & PIRATIYA -- -- -- --Время раздачи : 24/7---

_________________

Легко быть оптимистом, когда судьба не валит с ног тяжелыми ударами, а лишь иногда легонько шлепает по заднице.


Последний раз редактировалось: Враг Нароода (2019-11-06 14:46), всего редактировалось 4 раз(а)
[Торрент-статистика]
[Профиль]  [ЛС] 
Показать сообщения:    
Ответить на тему

Текущее время: Сегодня 07:22

Часовой пояс: GMT + 4



Вы не можете начинать темы
Вы не можете отвечать на сообщения
Вы не можете редактировать свои сообщения
Вы не можете удалять свои сообщения
Вы не можете голосовать в опросах
Вы не можете прикреплять файлы к сообщениям
Вы не можете скачивать файлы