В тени луны /In The Shadow Of The Moon ( Джим Микл) [2019,Триллер, криминал, детектив, фантастика,WEB-DL,HEVC,HDR 1080р] [Пифагор,DUB+ENG]+[Subs Rus+ENG]

Ответить на тему
 
Автор
Сообщение

Враг Нароода ®

Пол:

Стаж: 1 год 9 месяцев

Сообщений: 133

Репутация: 132 [+] [-]

Откуда: Красногорск

Пост 29-Сен-2019 20:04

[Цитировать] 

--В тени луны /In The Shadow Of The Moon -- --Год выпуска: 2019
Выпущено: США , 42, Automatik, Belladonna Productions
Жанр: Триллер, криминал, детектив, фантастика
Продолжительность: 01:55:32--Озвучка #1: Дублированный - Пифагор по заказу Netflix - Русский
Озвучка #2: Профессиональный многоголосый -Английский - Оригинал
Субтитры: Русские, ,English, English SDH
--Релиз Без Рекламы --MDB 8.1 --Режиссеры:
Джим Микл--В ролях: Бойд Холбрук, Майкл С. Холл, Боким Вудбайн, Клеопатра Коулмэн, Сара Дагдэйл, Руди Дхармалингхам, Габриэль Грэхэм, Джулия Ноуп, Райан Аллен, Билли Отис-- Филадельфия, 1988 год. У патрульного полицейского Томаса Локхарта день получился насыщенным. В разных концах города загадочной смертью умирают три человека, и всех троих на шее найдены странные следы от уколов. Чудом успев пообщаться с четвёртой жертвой, пока та ещё была жива, полицейские получают описание подозреваемой — чернокожей девушки в синем худи. Преследуя преступницу, Локхарт оказывается в метро, вступает с ней в потасовку, и девушка погибает под колёсами поезда. Этим же вечером жена полицейского, произведя на свет девочку, умирает на операционном столе.
1997 год. Поздравив дочь с днём рождения и пообещав сводить её в зоопарк, детектив Томас Локхарт получает сообщение об убийствах, идентичных преступлениям девятилетней давности. Подозреваемая — чернокожая девушка в синем худи.
-- --Качество :WEB-DL - HEVC-HDR- 10bit - 1080p
Формат: MKV
Видео кодек: H265
Видео: 5013Кбит/сек,1920х1080(16.9),в 24.000кадр/сек, HEVC (Main10@L4@Main@Main) , HDR10--Аудио Кодек:Аудио Кодек:AAC-AC3 - DTS
Аудио #1: DUB -Rus-Пифагор@DD5.1 Е-AC3, 640 Kbps, 48.0 KHz, 6 ch-Пифагор- Русский
Аудио #2: DUB -Rus-Пифагор@DD5.1 DTS, 3840 Kbps, 48.0 KHz, 6 ch -Пифагор- Русский
Аудио #3:Original@DD5.1 E-AC3 , 768 Kbps, 48.0 KHz, 6 ch - - English
Аудио #4: Original@DD5.1 DTS, 3840 Kbps, 48.0 KHz, 6 ch - - English-

Доп. информация:

Звуковая дорожка сделана путем наложения чистого голоса озвучивателей на центральный канал оригинальной дорожки. Качество идентично звуковой дорожке.
--

MediaInfo

Общее
Уникальный идентификатор : 247286811271482652932304647689014144224 (0xBA09B51C9F15F821AB77880D66E4ECE0)
Полное имя : C:\Users\Russian Patriot\Downloads\В тени луны - In The Shadow Of The Moon\In.the.Shadow.of.the.Moon_2019_HEVC_HDR_DD5.1_N.B_WEB-DL_1080_Rus_Eng\In.the.Shadow.of.the.Moon_2019_HEVC_HDR_DD5.1_N.B_WEB-DL_1080_Rus_Eng.mkv
Формат : Matroska
Версия формата : Version 4
Размер файла : 11,6 Гбайт
Продолжительность : 1 ч. 55 м.
Общий поток : 14,3 Мбит/сек
Название фильма : In the Shadow of the Moon 2019 @ Nikolai.Baranov & PIRATIYA
Дата кодирования : UTC 2019-09-29 10:21:36
Программа кодирования : mkvmerge v37.0.0 ('Leave It') 64-bit
Библиотека кодирования : libebml v1.3.9 + libmatroska v1.5.2 / Lavf58.20.100
Видео
Идентификатор : 1
Формат : HEVC
Формат/Информация : High Efficiency Video Coding
Профиль формата : Main 10@L4@Main
HDR_Format/String : SMPTE ST 2086, HDR10 compatible
Идентификатор кодека : V_MPEGH/ISO/HEVC
Продолжительность : 1 ч. 54 м.
Битрейт : 5013 Кбит/сек
Ширина : 1920 пикселей
Высота : 1080 пикселей
Соотношение сторон : 16:9
Режим частоты кадров : Постоянный
Частота кадров : 24,000 кадра/сек
Цветовое пространство : YUV
Субдискретизация насыщенности : 4:2:0 (Type 2)
Битовая глубина : 10 бит
Бит/(Пиксели*Кадры) : 0.101
Размер потока : 4,02 Гбайт (35%)
Заголовок : In.the.Shadow.of.the.Moon_2019_HEVC_HDR_DD5.1_N.B_WEB-DL_1080_Rus_Eng
Язык : Russian
Default : Да
Forced : Нет
Цветовой диапазон : Limited
Основные цвета : BT.2020
Характеристики трансфера : PQ
Коэффициенты матрицы : BT.2020 non-constant
MasteringDisplay_ColorPrimaries : Display P3
MasteringDisplay_Luminance : min: 0.0050 cd/m2, max: 1000 cd/m2
MaxCLL : 7953 cd/m2
MaxFALL : 720 cd/m2
Аудио #1
Идентификатор : 3
Формат : E-AC-3
Формат/Информация : Enhanced AC-3
Коммерческое название : Dolby Digital Plus
Идентификатор кодека : A_EAC3
Продолжительность : 1 ч. 55 м.
Вид битрейта : Постоянный
Битрейт : 640 Кбит/сек
Каналы : 6 каналов
ChannelLayout : L R C LFE Ls Rs
Частота : 48,0 КГц
Частота кадров : 31,250 кадров/сек (1536 SPF)
Метод сжатия : С потерями
Задержка видео : -41 мс.
Размер потока : 529 Мбайт (4%)
Заголовок : DUB -Rus-Пифагор@DD5.1 Е-AC3, 640 Kbps, 48.0 KHz, 6 ch
Язык : Russian
ServiceKind/String : Complete Main
Default : Да
Forced : Нет
Аудио #2
Идентификатор : 5
Формат : DTS
Формат/Информация : Digital Theater Systems
Идентификатор кодека : A_DTS
Продолжительность : 1 ч. 55 м.
Вид битрейта : Постоянный
Битрейт : 3968 Кбит/сек
Каналы : 6 каналов
ChannelLayout : C L R Ls Rs LFE
Частота : 48,0 КГц
Частота кадров : 46,875 кадров/сек (1024 SPF)
Битовая глубина : 16 бит
Метод сжатия : С потерями
Задержка видео : -83 мс.
Размер потока : 3,20 Гбайт (28%)
Заголовок : DUB -Rus-Пифагор@DD5.1 DTS, 3840 Kbps, 48.0 KHz, 6 ch
Язык : Russian
Default : Нет
Forced : Нет
Аудио #3
Идентификатор : 7
Формат : E-AC-3 JOC
Формат/Информация : Enhanced AC-3 with Joint Object Coding
Коммерческое название : Dolby Digital Plus with Dolby Atmos
Идентификатор кодека : A_EAC3
Продолжительность : 1 ч. 55 м.
Вид битрейта : Постоянный
Битрейт : 768 Кбит/сек
Каналы : 6 каналов
ChannelLayout : L R C LFE Ls Rs
Частота : 48,0 КГц
Частота кадров : 31,250 кадров/сек (1536 SPF)
Метод сжатия : С потерями
Задержка видео : -83 мс.
Размер потока : 635 Мбайт (5%)
Заголовок : Original@DD5.1 E-AC3 , 768 Kbps, 48.0 KHz, 6 ch
Язык : English
ServiceKind/String : Complete Main
Default : Нет
Forced : Нет
ComplexityIndex : 16
NumberOfDynamicObjects : 15
BedChannelCount/String : 1 канал
BedChannelConfiguration : LFE
Аудио #4
Идентификатор : 8
Формат : DTS
Формат/Информация : Digital Theater Systems
Идентификатор кодека : A_DTS
Продолжительность : 1 ч. 55 м.
Вид битрейта : Постоянный
Битрейт : 3968 Кбит/сек
Каналы : 6 каналов
ChannelLayout : C L R Ls Rs LFE
Частота : 48,0 КГц
Частота кадров : 46,875 кадров/сек (1024 SPF)
Битовая глубина : 16 бит
Метод сжатия : С потерями
Задержка видео : -83 мс.
Размер потока : 3,20 Гбайт (28%)
Заголовок : Original@DD5.1 DTS, 3840 Kbps, 48.0 KHz, 6 ch
Язык : English
Default : Нет
Forced : Нет
Текст #1
Идентификатор : 2
Формат : UTF-8
Идентификатор кодека : S_TEXT/UTF8
Идентификатор кодека/Информация : UTF-8 Plain Text
Продолжительность : 1 ч. 30 м.
Битрейт : 2 бит/сек
ElementCount : 32
Размер потока : 1,60 Кбайт (0%)
Заголовок : Russian-Forced
Язык : Russian
Default : Да
Forced : Нет
Текст #2
Идентификатор : 4
Формат : UTF-8
Идентификатор кодека : S_TEXT/UTF8
Идентификатор кодека/Информация : UTF-8 Plain Text
Продолжительность : 1 ч. 54 м.
Битрейт : 67 бит/сек
ElementCount : 1226
Размер потока : 56,8 Кбайт (0%)
Заголовок : Russian
Язык : Russian
Default : Нет
Forced : Нет
Текст #3
Идентификатор : 6
Формат : UTF-8
Идентификатор кодека : S_TEXT/UTF8
Идентификатор кодека/Информация : UTF-8 Plain Text
Продолжительность : 1 ч. 49 м.
Битрейт : 60 бит/сек
ElementCount : 1705
Размер потока : 48,7 Кбайт (0%)
Заголовок : Original - SDH
Язык : English
Default : Нет
Forced : Нет
Текст #4
Идентификатор : 9
Формат : UTF-8
Идентификатор кодека : S_TEXT/UTF8
Идентификатор кодека/Информация : UTF-8 Plain Text
Продолжительность : 1 ч. 46 м.
Битрейт : 52 бит/сек
ElementCount : 1379
Размер потока : 41,1 Кбайт (0%)
Заголовок : Original
Язык : English
Default : Нет
Forced : Нет
Меню
00:00:00.083 : ru:Глава 01 / ru:Глава 01 / ru:Глава 01 / ru:Глава 01 / ru:Глава 01 / ru:Глава 01 / ru:Глава 01 / ru:Глава 01 / ru:Глава 01
--

Скриншоты

-- -- -- --Релиз от: Nikolai.Baranov & PIRATIYA . Поблагодарить:
ЯД: 410017546713876
-- -- -- --Время раздачи : 24/7--

_________________

Легко быть оптимистом, когда судьба не валит с ног тяжелыми ударами, а лишь иногда легонько шлепает по заднице.
[Торрент-статистика]
[Профиль]  [ЛС] 
Показать сообщения:    
Ответить на тему

Текущее время: Сегодня 01:39

Часовой пояс: GMT + 4



Вы не можете начинать темы
Вы не можете отвечать на сообщения
Вы не можете редактировать свои сообщения
Вы не можете удалять свои сообщения
Вы не можете голосовать в опросах
Вы не можете прикреплять файлы к сообщениям
Вы не можете скачивать файлы