Карнивал Роу / Carnival Row (Сезон 1 , Серия 1-8 из 8) (Джон Эмиел, Анна Ферстер) [2019, Фэнтези, триллер, детектив,WEB-DLRip 1080p] [LostFilm+AlexFilm +HDRezka+Кубик в Кубе+Profix Media+TVShows+ENG]+[Subs Rus , ENG]

Ответить на тему
 
Автор
Сообщение

Враг Нароода ®

Пол:

Стаж: 1 год 10 месяцев

Сообщений: 142

Репутация: 153 [+] [-]

Откуда: Красногорск

Пост 11-Сен-2019 11:28

[Цитировать] 

-- --Карнивал Роу / Carnival Row Сезон 1 , Серия 1- - 8 из 8 - Полный Комплект -- --Год выпуска: 2019
Выпущено: США , Amazon Studios, Legendary Television, Stillking Films
Жанр: Фэнтези, триллер, детектив
Продолжительность: 01:00:00
Сезон: 1
Серия:1-8
Количество серий в сезоне:8--Озвучка #1: Профессиональный многоголосый - LostFilm - Русский
Озвучка #2: Профессиональный многоголосый - AlexFilm - Русский
Озвучка #3: Профессиональный двухголосый закадровый - HDRezka Studio - Русский
Озвучка #4: Профессиональный двухголосый закадровый - Profix Media - Русский
Озвучка #5: Профессиональный двухголосый закадровый - Кубик в Кубе- Русский
Озвучка #6: Профессиональный двухголосый закадровый - TVShows - Русский
Озвучка #7: Профессиональный многоголосый -Английский - Оригинал
Субтитры: Russian , English, English SDH
--Релиз Без Рекламы - В сериале Ненормативная лексика-В сериале присутствуют сцены сексуального характера и насилия. -MDB 8.1 --Режиссеры:
Джон Эмиел, Анна Ферстер, Энди Годдард--В ролях: : Орландо Блум, Кара Делевинь, Арти Фрушан, Индира Варма, Вадж Али, Мейв Дермоди, Эндрю Гауэр, Дэвид Гяси, Джейми Харрис, Джаред Харрис-- "Карнивал Роу" — мрачный фэнтези-сериал, премьера которого состоится 30 августа этого года на стриминговом сервисе Amazon Video. Главные роли в нем исполнят голливудские звезды — Орландо Блум и Кара Делевинь. Мир сериала довольно оригинален и интересен. Зрителя переносят в город Бюрг, очень похожий на викторианский Лондон со всеми приметами эпохи вроде карет, котелков и газовых светильников. Только вот вместе с людьми в этом городе живут мифические существа: феи, вампиры и прочие лепреконы. Тут они оказались не по доброй воле. Дело в том, что их Родину раздирает война, и волшебные существа вынуждены переселиться в мир людей (вам не кажется, что это такой прозрачный намек на ситуацию с беженцами?). В сериале присутствует и детективная линия. Убита фея-танцовщица. За дело берется сыщик Райкрофт в исполнении Орландо Блума. Главный подозреваемый — её любовник-вампир, который скрывается от полиции. Довольно скоро детектив Райкрофт начнёт задумываться, не завелся ли на улицах Бюрга маньяк, открывший охоту на непрошенных гостей. Да и атмосфера в городе накаляется: отношения между людьми и сказочными героями портятся и грозят перейти в открытый конфликт.-- --Качество :WEB-DLRip - HEVC 10bit - 1080p
Формат: MKV
Видео кодек: H265
Видео: 2050Кбит/сек,1920х1080(16.9),в 23.976кадр/сек, HEVC (Main10@L4@Main)--Аудио Кодек:AC3
Аудио #1:MVO LostFilm @DD5.1 AC3, 640 Kbps, 48.0 KHz, 6 ch- Lostfilm -Русский
Аудио #2:MVO AlexFilm @DD5.1 AC3, 384 Kbps, 48.0 KHz, 6 ch-AlexFilm -Русский
Аудио #3:MVO HDRezka Studio @DD5.1 AC3, 384 Kbps, 48.0 KHz, 6 ch-HDRezka -Русский
Аудио #4:MVO Profix Media @DD5.1 AC3, 384 Kbps, 48.0 KHz, 6 ch-Profix Media -Русский
Аудио #5:MVO Kubik v Kubike @DD5.1 AC3, 384 Kbps, 48.0 KHz, 6 ch -Kubik v Kubike -Русский
Аудио #6:MVO TVShows @DD5.1 AC3, 384 Kbps, 48.0 KHz, 6 ch-TVShows -Русский
Аудио #7: Original@DD5.1 E-AC3 ,640 Kbps, 48.0 KHz, 6 ch - English - Оригинал--

Доп. информация:

Звуковая дорожка сделана путем наложения чистого голоса озвучивателей на центральный канал оригинальной дорожки. Качество идентично звуковой дорожке.
--

Список эпизодов сезона


1 сезон 1 серия - Темный Бог пробуждается - Some Dark God Wakes
1 сезон 2 серия - Эшлинг - Aisling
1 сезон 3 серия - Королевства Луны - Kingdoms of the Moon
1 сезон 4 серия - Соединение несоединимого - The Joining of Unlike Things
1 сезон 5 серия - Довольно печалиться - Grieve No More
1 сезон 6 серия - Существа без сопровождения - Unaccompanied Fae
1 сезон 7 серия - Мир грядущего - The World to Come
1 сезон 8 серия - Сумерки - The Gloaming
--

MediaInfo сезона

Общее
Уникальный идентификатор : 277083582437846855690740015182601658787 (0xD0745B5A9EED80DE60318454914621A3)
Полное имя : C:\Users\Russian Patriot\Downloads\Карнивал Роу - Carnival Row\Carnival_Row_2019_S01_HEVC- 10Bit_Н265_DD5.1_N.B_HD_1080_5xRus_Eng\Carnival_Row_2019_S01E01_HEVC_Н265_DD5.1_N.B_HD_1080_5xRus_Eng.mkv
Формат : Matroska
Версия формата : Version 4
Размер файла : 2,22 Гбайт
Продолжительность : 1 ч. 0 м.
Общий поток : 5253 Кбит/сек
Название фильма : Carnival Row 2019 S01E01 @ Nikolai.Baranov & PIRATIYA
Дата кодирования : UTC 2019-09-15 14:50:40
Программа кодирования : mkvmerge v37.0.0 ('Leave It') 64-bit
Библиотека кодирования : libebml v1.3.9 + libmatroska v1.5.2 / Lavf58.20.100
Видео
Идентификатор : 1
Формат : HEVC
Формат/Информация : High Efficiency Video Coding
Профиль формата : Main 10@L4@Main
Идентификатор кодека : V_MPEGH/ISO/HEVC
Продолжительность : 1 ч. 0 м.
Битрейт : 2050 Кбит/сек
Ширина : 1920 пикселей
Высота : 1080 пикселей
Соотношение сторон : 16:9
Режим частоты кадров : Постоянный
Частота кадров : 23,976 (24000/1001) кадра/сек
Цветовое пространство : YUV
Субдискретизация насыщенности : 4:2:0
Битовая глубина : 10 бит
Бит/(Пиксели*Кадры) : 0.041
Размер потока : 889 Мбайт (39%)
Заголовок : Carnival_Row_2019_S01E01_HEVC_Н265_DD5.1_N.B_HD_1080_3xRus_Eng
Библиотека кодирования : x265 2.9+8-27d8424c799d:[Windows][MSVC 1915][64 bit] 10bit
Настройки программы : cpuid=1111039 / frame-threads=3 / numa-pools=8 / wpp / no-pmode / no-pme / no-psnr / no-ssim / log-level=2 / input-csp=1 / input-res=1920x1080 / interlace=0 / total-frames=0 / level-idc=0 / high-tier=1 / uhd-bd=0 / ref=4 / no-allow-non-conformance / no-repeat-headers / annexb / no-aud / no-hrd / info / hash=0 / no-temporal-layers / open-gop / min-keyint=23 / keyint=250 / gop-lookahead=0 / bframes=8 / b-adapt=2 / b-pyramid / bframe-bias=0 / rc-lookahead=100 / lookahead-slices=4 / scenecut=40 / radl=0 / no-intra-refresh / ctu=64 / min-cu-size=8 / no-rect / no-amp / max-tu-size=32 / tu-inter-depth=1 / tu-intra-depth=1 / limit-tu=0 / rdoq-level=2 / dynamic-rd=0.00 / no-ssim-rd / signhide / no-tskip / nr-intra=0 / nr-inter=0 / no-constrained-intra / no-strong-intra-smoothing / max-merge=3 / limit-refs=3 / limit-modes / me=3 / subme=5 / merange=57 / temporal-mvp / weightp / no-weightb / no-analyze-src-pics / deblock=0:0 / sao / no-sao-non-deblock / rd=4 / no-early-skip / rskip / no-fast-intra / no-tskip-fast / no-cu-lossless / no-b-intra / no-splitrd-skip / rdpenalty=0 / psy-rd=1.30 / psy-rdoq=2.00 / no-rd-refine / no-lossless / cbqpoffs=0 / crqpoffs=0 / rc=crf / crf=20.0 / qcomp=0.60 / qpstep=4 / stats-write=0 / stats-read=0 / ipratio=1.40 / pbratio=1.30 / aq-mode=2 / aq-strength=1.10 / cutree / zone-count=0 / no-strict-cbr / qg-size=32 / no-rc-grain / qpmax=69 / qpmin=0 / no-const-vbv / sar=1 / overscan=0 / videoformat=5 / range=0 / colorprim=2 / transfer=2 / colormatrix=2 / chromaloc=0 / display-window=0 / max-cll=0,0 / min-luma=0 / max-luma=1023 / log2-max-poc-lsb=8 / vui-timing-info / vui-hrd-info / slices=1 / no-opt-qp-pps / no-opt-ref-list-length-pps / no-multi-pass-opt-rps / scenecut-bias=0.05 / no-opt-cu-delta-qp / no-aq-motion / no-hdr / no-hdr-opt / no-dhdr10-opt / no-idr-recovery-sei / analysis-reuse-level=5 / scale-factor=0 / refine-intra=0 / refine-inter=0 / refine-mv=0 / no-limit-sao / ctu-info=0 / no-lowpass-dct / refine-mv-type=0 / copy-pic=1 / max-ausize-factor=1.0 / no-dynamic-refine / no-single-sei
Язык : Russian
Default : Да
Forced : Нет
Аудио #1
Идентификатор : 6
Формат : AC-3
Формат/Информация : Audio Coding 3
Коммерческое название : Dolby Digital
Идентификатор кодека : A_AC3
Продолжительность : 1 ч. 0 м.
Вид битрейта : Постоянный
Битрейт : 640 Кбит/сек
Каналы : 6 каналов
ChannelLayout : L R C LFE Ls Rs
Частота : 48,0 КГц
Частота кадров : 31,250 кадров/сек (1536 SPF)
Метод сжатия : С потерями
Задержка видео : -83 мс.
Размер потока : 277 Мбайт (12%)
Заголовок : MVO LostFilm @DD5.1 AC3, 640 Kbps, 48.0 KHz, 6 ch
Язык : Russian
ServiceKind/String : Complete Main
Default : Да
Forced : Нет
Аудио #2
Идентификатор : 7
Формат : AC-3
Формат/Информация : Audio Coding 3
Коммерческое название : Dolby Digital
Идентификатор кодека : A_AC3
Продолжительность : 1 ч. 0 м.
Вид битрейта : Постоянный
Битрейт : 384 Кбит/сек
Каналы : 6 каналов
ChannelLayout : L R C LFE Ls Rs
Частота : 48,0 КГц
Частота кадров : 31,250 кадров/сек (1536 SPF)
Метод сжатия : С потерями
Задержка видео : -83 мс.
Размер потока : 166 Мбайт (7%)
Заголовок : MVO AlexFilm @DD5.1 AC3, 384 Kbps, 48.0 KHz, 6 ch
Язык : Russian
ServiceKind/String : Complete Main
Default : Нет
Forced : Нет
Аудио #3
Идентификатор : 8
Формат : AC-3
Формат/Информация : Audio Coding 3
Коммерческое название : Dolby Digital
Идентификатор кодека : A_AC3
Продолжительность : 1 ч. 0 м.
Вид битрейта : Постоянный
Битрейт : 384 Кбит/сек
Каналы : 6 каналов
ChannelLayout : L R C LFE Ls Rs
Частота : 48,0 КГц
Частота кадров : 31,250 кадров/сек (1536 SPF)
Метод сжатия : С потерями
Задержка видео : -83 мс.
Размер потока : 166 Мбайт (7%)
Заголовок : MVO HDRezka Studio @DD5.1 AC3, 384 Kbps, 48.0 KHz, 6 ch
Язык : Russian
ServiceKind/String : Complete Main
Default : Нет
Forced : Нет
Аудио #4
Идентификатор : 9
Формат : AC-3
Формат/Информация : Audio Coding 3
Коммерческое название : Dolby Digital
Идентификатор кодека : A_AC3
Продолжительность : 1 ч. 0 м.
Вид битрейта : Постоянный
Битрейт : 384 Кбит/сек
Каналы : 6 каналов
ChannelLayout : L R C LFE Ls Rs
Частота : 48,0 КГц
Частота кадров : 31,250 кадров/сек (1536 SPF)
Метод сжатия : С потерями
Задержка видео : -83 мс.
Размер потока : 166 Мбайт (7%)
Заголовок : MVO Profix Media @DD5.1 AC3, 384 Kbps, 48.0 KHz, 6 ch
Язык : Russian
ServiceKind/String : Complete Main
Default : Нет
Forced : Нет
Аудио #5
Идентификатор : 10
Формат : AC-3
Формат/Информация : Audio Coding 3
Коммерческое название : Dolby Digital
Идентификатор кодека : A_AC3
Продолжительность : 1 ч. 0 м.
Вид битрейта : Постоянный
Битрейт : 384 Кбит/сек
Каналы : 6 каналов
ChannelLayout : L R C LFE Ls Rs
Частота : 48,0 КГц
Частота кадров : 31,250 кадров/сек (1536 SPF)
Метод сжатия : С потерями
Задержка видео : -83 мс.
Размер потока : 166 Мбайт (7%)
Заголовок : MVO Kubik v Kubike @DD5.1 AC3, 384 Kbps, 48.0 KHz, 6 ch
Язык : Russian
ServiceKind/String : Complete Main
Default : Нет
Forced : Нет
Аудио #6
Идентификатор : 11
Формат : E-AC-3
Формат/Информация : Enhanced AC-3
Коммерческое название : Dolby Digital Plus
Идентификатор кодека : A_EAC3
Продолжительность : 1 ч. 0 м.
Вид битрейта : Постоянный
Битрейт : 640 Кбит/сек
Каналы : 6 каналов
ChannelLayout : L R C LFE Ls Rs
Частота : 48,0 КГц
Частота кадров : 31,250 кадров/сек (1536 SPF)
Метод сжатия : С потерями
Размер потока : 277 Мбайт (12%)
Заголовок : Original@DD5.1 E-AC3 ,640 Kbps, 48.0 KHz, 6 ch
Язык : English
ServiceKind/String : Complete Main
Default : Нет
Forced : Нет
Аудио #7
Идентификатор : 12
Формат : AC-3
Формат/Информация : Audio Coding 3
Коммерческое название : Dolby Digital
Идентификатор кодека : A_AC3
Продолжительность : 1 ч. 0 м.
Вид битрейта : Постоянный
Битрейт : 384 Кбит/сек
Каналы : 6 каналов
ChannelLayout : L R C LFE Ls Rs
Частота : 48,0 КГц
Частота кадров : 31,250 кадров/сек (1536 SPF)
Метод сжатия : С потерями
Задержка видео : -83 мс.
Размер потока : 166 Мбайт (7%)
Заголовок : MVO TVShows @DD5.1 AC3, 384 Kbps, 48.0 KHz, 6 ch
Язык : Russian
ServiceKind/String : Complete Main
Default : Нет
Forced : Нет
Текст #1
Идентификатор : 2
Формат : UTF-8
Идентификатор кодека : S_TEXT/UTF8
Идентификатор кодека/Информация : UTF-8 Plain Text
Продолжительность : 46 м. 35 с.
Битрейт : 2 бит/сек
ElementCount : 17
Размер потока : 969 байт (0%)
Заголовок : Russian-Forced
Язык : Russian
Default : Да
Forced : Нет
Текст #2
Идентификатор : 3
Формат : UTF-8
Идентификатор кодека : S_TEXT/UTF8
Идентификатор кодека/Информация : UTF-8 Plain Text
Продолжительность : 58 м. 19 с.
Битрейт : 88 бит/сек
ElementCount : 747
Размер потока : 37,9 Кбайт (0%)
Заголовок : Russian
Язык : Russian
Default : Нет
Forced : Нет
Текст #3
Идентификатор : 4
Формат : UTF-8
Идентификатор кодека : S_TEXT/UTF8
Идентификатор кодека/Информация : UTF-8 Plain Text
Продолжительность : 58 м. 20 с.
Битрейт : 63 бит/сек
ElementCount : 1016
Размер потока : 27,0 Кбайт (0%)
Заголовок : Original - SDH
Язык : English
Default : Нет
Forced : Нет
Текст #4
Идентификатор : 5
Формат : UTF-8
Идентификатор кодека : S_TEXT/UTF8
Идентификатор кодека/Информация : UTF-8 Plain Text
Продолжительность : 57 м. 31 с.
Битрейт : 63 бит/сек
ElementCount : 1002
Размер потока : 26,9 Кбайт (0%)
Заголовок : Original
Язык : English
Default : Нет
Forced : Нет
Меню
00:00:00.000 : :Amazon Original
00:00:05.000 : :Title Sequence
00:00:18.000 : :Opening Credits
00:00:29.000 : :The history of The Great War
00:01:49.000 : :Fleeing from Tirnanoc
00:08:00.000 : :Philo works on a case in The Burgue
00:14:29.000 : :The wreckage from the ship
00:15:22.000 : :Political leanings in The Burgue
00:19:02.000 : :Philo chases down a lead
00:20:45.000 : :Vignette's fate after the shipwreck
00:26:00.000 : :Philo attends a protest meeting
00:28:46.000 : :Philo experiences favoritism
00:31:48.000 : :Running errands leads to an old friend
00:37:55.000 : :Philo gets reprimanded
00:40:26.000 : :Vignette vows revenge
00:41:05.000 : :Greeting the new neighbors
00:42:51.000 : :Jonah has a little fun
00:45:22.000 : :Looking for a fish in the sea
00:50:34.000 : :Vignette comes for Philo
00:57:04.000 : :The darkness is coming...
00:58:33.000 : :End Credits
--

Скриншоты

-- --

Как закачать отдельный файл

1. Открыть торрент
2. Снять галки с тех файлов торрента, которые мы не хотим закачивать. Оставляем только на нужных нам файлах (файле).
3. Нажать О.К.
В клиенте utorrent
Инструкция
1) Открыть торрент

2) Снять галки с тех файлов торрента, которые мы не хотим закачивать:
* либо вручную, снимая с каждого файла галку( скрин №1)
* либо, нажав кнопку "Снять метки (Select None)", сняв сразу со всех файлов(скрин №2)
№1

№2

Оставляем только на нужных нам файлах (файле).

3)Нажать О.К
-- -- --Внимание!!! 21.10. 2019. РАЗДАЧА ОБНОВЛЕНА. ДОБАВЛЕНА - ЗВУКОВАЯ ДОРОЖКА ОТ Кубик в Кубе ВО ВСЕ ЭПИЗОДЫ . ФИНАЛ СЕЗОНА. ОБНОВИТЕ ТОРЕНТ ФАЙЛ. ПРИЯТНОГО ПРОСМОТРА . Поблагодарить:
ЯД: 410017546713876
--Релиз от: Nikolai.Baranov & PIRATIYA -- -- -- --Время раздачи : 24/7---

_________________

Легко быть оптимистом, когда судьба не валит с ног тяжелыми ударами, а лишь иногда легонько шлепает по заднице.
[Торрент-статистика]
[Профиль]  [ЛС] 
Показать сообщения:    
Ответить на тему

Текущее время: Сегодня 16:51

Часовой пояс: GMT + 4



Вы не можете начинать темы
Вы не можете отвечать на сообщения
Вы не можете редактировать свои сообщения
Вы не можете удалять свои сообщения
Вы не можете голосовать в опросах
Вы не можете прикреплять файлы к сообщениям
Вы не можете скачивать файлы