Карнивал Роу / Carnival Row (Сезон 1 , Серия 1-8 из 8) (Джон Эмиел, Анна Ферстер) [2019, Фэнтези, триллер, детектив,WEB-DLRip 1080p] [LostFilm+AlexFilm +HDRezka+Кубик в Кубе+Profix Media+TVShows+ENG]+[Subs Rus , ENG]

Ответить на тему
 
Автор
Сообщение

Враг Нароода ®

Пол:

Стаж: 1 год 10 месяцев

Сообщений: 142

Репутация: 153 [+] [-]

Откуда: Красногорск

Пост 03-Сен-2019 15:37

[Цитировать] 

-- --Карнивал Роу / Carnival Row Сезон 1 , Серия 1-8 из 8 - Полный Комплект-- --Год выпуска: 2019
Выпущено: США , Amazon Studios, Legendary Television, Stillking Films
Жанр: Фэнтези, триллер, детектив
Продолжительность: 01:00:00
Сезон: 1
Серия:1-8
Количество серий в сезоне:8--Озвучка #1: Профессиональный многоголосый - LostFilm - Русский
Озвучка #2: Профессиональный многоголосый - AlexFilm - Русский
Озвучка #3: Профессиональный двухголосый закадровый - HDRezka Studio - Русский
Озвучка #4: Профессиональный двухголосый закадровый - Profix Media - Русский
Озвучка #5: Профессиональный двухголосый закадровый - Кубик в Кубе - Русский
Озвучка #6: Профессиональный двухголосый закадровый - TVShows - Русский
Озвучка #7: Профессиональный многоголосый -Английский - Оригинал
Субтитры: Russian , English, English SDH
--Релиз Без Рекламы - В сериале Ненормативная лексика-В сериале присутствуют сцены сексуального характера и насилия. -MDB 8.1 --Режиссеры:
Джон Эмиел, Анна Ферстер, Энди Годдард--В ролях: : Орландо Блум, Кара Делевинь, Арти Фрушан, Индира Варма, Вадж Али, Мейв Дермоди, Эндрю Гауэр, Дэвид Гяси, Джейми Харрис, Джаред Харрис-- "Карнивал Роу" — мрачный фэнтези-сериал, премьера которого состоится 30 августа этого года на стриминговом сервисе Amazon Video. Главные роли в нем исполнят голливудские звезды — Орландо Блум и Кара Делевинь. Мир сериала довольно оригинален и интересен. Зрителя переносят в город Бюрг, очень похожий на викторианский Лондон со всеми приметами эпохи вроде карет, котелков и газовых светильников. Только вот вместе с людьми в этом городе живут мифические существа: феи, вампиры и прочие лепреконы. Тут они оказались не по доброй воле. Дело в том, что их Родину раздирает война, и волшебные существа вынуждены переселиться в мир людей (вам не кажется, что это такой прозрачный намек на ситуацию с беженцами?). В сериале присутствует и детективная линия. Убита фея-танцовщица. За дело берется сыщик Райкрофт в исполнении Орландо Блума. Главный подозреваемый — её любовник-вампир, который скрывается от полиции. Довольно скоро детектив Райкрофт начнёт задумываться, не завелся ли на улицах Бюрга маньяк, открывший охоту на непрошенных гостей. Да и атмосфера в городе накаляется: отношения между людьми и сказочными героями портятся и грозят перейти в открытый конфликт.-- --Качество :WEB-DLRip 1080p
Формат: MKV
Видео кодек: H264
Видео: 5593Кбит/сек,1920х1080(16.9),в 23.976кадр/сек,AVC (High@L4)(CABAC/4 Ref Frames)--Аудио Кодек:AC3
Аудио #1:MVO LostFilm @DD5.1 AC3, 640 Kbps, 48.0 KHz, 6 ch- Lostfilm -Русский
Аудио #2:MVO AlexFilm @DD5.1 AC3, 384 Kbps, 48.0 KHz, 6 ch-AlexFilm -Русский
Аудио #3:MVO HDRezka Studio @DD5.1 AC3, 384 Kbps, 48.0 KHz, 6 ch-HDRezka -Русский
Аудио #4:MVO Profix Media @DD5.1 AC3, 384 Kbps, 48.0 KHz, 6 ch-Profix Media -Русский
Аудио #5:MVO Kubik v Kubike @DD5.1 AC3, 384 Kbps, 48.0 KHz, 6 ch -Kubik v Kubike -Русский
Аудио #6:MVO TVShows @DD5.1 AC3, 384 Kbps, 48.0 KHz, 6 ch-TVShows -Русский
Аудио #7: Original@DD5.1 E-AC3 ,640 Kbps, 48.0 KHz, 6 ch - English - Оригинал--

Доп. информация:

Звуковая дорожка сделана путем наложения чистого голоса озвучивателей на центральный канал оригинальной дорожки. Качество идентично звуковой дорожке.
--

Список эпизодов сезона


1 сезон 1 серия - Темный Бог пробуждается - Some Dark God Wakes
1 сезон 2 серия - Эшлинг - Aisling
1 сезон 3 серия - Королевства Луны - Kingdoms of the Moon
1 сезон 4 серия - Соединение несоединимого - The Joining of Unlike Things
1 сезон 5 серия - Довольно печалиться - Grieve No More
1 сезон 6 серия - Существа без сопровождения - Unaccompanied Fae
1 сезон 7 серия - Мир грядущего - The World to Come
1 сезон 8 серия - Сумерки - The Gloaming
--

MediaInfo сезона

Общее
Уникальный идентификатор : 98061080677964251106158773811955397999 (0x49C5E08DEDDA55E904ABD9EF3784756F)
Полное имя : C:\Users\Russian Patriot\Downloads\Карнивал Роу - Carnival Row\Carnival.Row.2019.S01_Н264_DD5.1_N.B_HD_1080_5xRus_Eng\Carnival.Row.2019.S01E01_Н264_DD5.1_N.B_HD_1080_5xRus_Eng.mkv
Формат : Matroska
Версия формата : Version 4
Размер файла : 3,72 Гбайт
Продолжительность : 1 ч. 0 м.
Общий поток : 8797 Кбит/сек
Название фильма : Carnival Row 2019 S01E01 @ Nikolai.Baranov & PIRATIYA
Дата кодирования : UTC 2019-09-14 16:24:32
Программа кодирования : mkvmerge v37.0.0 ('Leave It') 64-bit
Библиотека кодирования : libebml v1.3.9 + libmatroska v1.5.2 / Lavf58.20.100
Видео
Идентификатор : 1
Формат : AVC
Формат/Информация : Advanced Video Codec
Профиль формата : High@L4
Настройки формата : CABAC / 4 Ref Frames
Параметр CABAC формата : Да
Параметр RefFrames формата : 4 кадра
Идентификатор кодека : V_MPEG4/ISO/AVC
Продолжительность : 1 ч. 0 м.
Вид битрейта : Постоянный
Битрейт : 5593 Кбит/сек
Номинальный битрейт : 10000 Кбит/сек
Ширина : 1920 пикселей
Высота : 1080 пикселей
Соотношение сторон : 16:9
Режим частоты кадров : Постоянный
Частота кадров : 23,976 (24000/1001) кадра/сек
Цветовое пространство : YUV
Субдискретизация насыщенности : 4:2:0
Битовая глубина : 8 бит
Тип развёртки : Прогрессивная
Бит/(Пиксели*Кадры) : 0.112
Размер потока : 2,37 Гбайт (64%)
Заголовок : Carnival.Row.2019.S01E01_Н264_DD5.1_N.B_HD_1080_5xRus_Eng
Язык : Russian
Default : Да
Forced : Нет
Цветовой диапазон : Limited
Основные цвета : BT.709
Характеристики трансфера : BT.709
Коэффициенты матрицы : BT.709
Аудио #1
Идентификатор : 5
Формат : AC-3
Формат/Информация : Audio Coding 3
Коммерческое название : Dolby Digital
Идентификатор кодека : A_AC3
Продолжительность : 1 ч. 0 м.
Вид битрейта : Постоянный
Битрейт : 640 Кбит/сек
Каналы : 6 каналов
ChannelLayout : L R C LFE Ls Rs
Частота : 48,0 КГц
Частота кадров : 31,250 кадров/сек (1536 SPF)
Метод сжатия : С потерями
Задержка видео : -83 мс.
Размер потока : 277 Мбайт (7%)
Заголовок : MVO LostFilm @DD5.1 AC3, 640 Kbps, 48.0 KHz, 6 ch
Язык : Russian
ServiceKind/String : Complete Main
Default : Да
Forced : Нет
Аудио #2
Идентификатор : 6
Формат : AC-3
Формат/Информация : Audio Coding 3
Коммерческое название : Dolby Digital
Идентификатор кодека : A_AC3
Продолжительность : 1 ч. 0 м.
Вид битрейта : Постоянный
Битрейт : 384 Кбит/сек
Каналы : 6 каналов
ChannelLayout : L R C LFE Ls Rs
Частота : 48,0 КГц
Частота кадров : 31,250 кадров/сек (1536 SPF)
Метод сжатия : С потерями
Задержка видео : -83 мс.
Размер потока : 166 Мбайт (4%)
Заголовок : MVO AlexFilm @DD5.1 AC3, 384 Kbps, 48.0 KHz, 6 ch
Язык : Russian
ServiceKind/String : Complete Main
Default : Нет
Forced : Нет
Аудио #3
Идентификатор : 7
Формат : AC-3
Формат/Информация : Audio Coding 3
Коммерческое название : Dolby Digital
Идентификатор кодека : A_AC3
Продолжительность : 1 ч. 0 м.
Вид битрейта : Постоянный
Битрейт : 384 Кбит/сек
Каналы : 6 каналов
ChannelLayout : L R C LFE Ls Rs
Частота : 48,0 КГц
Частота кадров : 31,250 кадров/сек (1536 SPF)
Метод сжатия : С потерями
Задержка видео : -83 мс.
Размер потока : 166 Мбайт (4%)
Заголовок : MVO HDRezka Studio @DD5.1 AC3, 384 Kbps, 48.0 KHz, 6 ch
Язык : Russian
ServiceKind/String : Complete Main
Default : Нет
Forced : Нет
Аудио #4
Идентификатор : 8
Формат : E-AC-3
Формат/Информация : Enhanced AC-3
Коммерческое название : Dolby Digital Plus
Идентификатор кодека : A_EAC3
Продолжительность : 1 ч. 0 м.
Вид битрейта : Постоянный
Битрейт : 640 Кбит/сек
Каналы : 6 каналов
ChannelLayout : L R C LFE Ls Rs
Частота : 48,0 КГц
Частота кадров : 31,250 кадров/сек (1536 SPF)
Метод сжатия : С потерями
Размер потока : 277 Мбайт (7%)
Заголовок : Original@DD5.1 E-AC3 ,640 Kbps, 48.0 KHz, 6 ch
Язык : English
ServiceKind/String : Complete Main
Default : Нет
Forced : Нет
Аудио #5
Идентификатор : 9
Формат : AC-3
Формат/Информация : Audio Coding 3
Коммерческое название : Dolby Digital
Идентификатор кодека : A_AC3
Продолжительность : 1 ч. 0 м.
Вид битрейта : Постоянный
Битрейт : 384 Кбит/сек
Каналы : 6 каналов
ChannelLayout : L R C LFE Ls Rs
Частота : 48,0 КГц
Частота кадров : 31,250 кадров/сек (1536 SPF)
Метод сжатия : С потерями
Задержка видео : -83 мс.
Размер потока : 166 Мбайт (4%)
Заголовок : MVO Profix Media @DD5.1 AC3, 384 Kbps, 48.0 KHz, 6 ch
Язык : Russian
ServiceKind/String : Complete Main
Default : Нет
Forced : Нет
Аудио #6
Идентификатор : 10
Формат : AC-3
Формат/Информация : Audio Coding 3
Коммерческое название : Dolby Digital
Идентификатор кодека : A_AC3
Продолжительность : 1 ч. 0 м.
Вид битрейта : Постоянный
Битрейт : 384 Кбит/сек
Каналы : 6 каналов
ChannelLayout : L R C LFE Ls Rs
Частота : 48,0 КГц
Частота кадров : 31,250 кадров/сек (1536 SPF)
Метод сжатия : С потерями
Задержка видео : -83 мс.
Размер потока : 166 Мбайт (4%)
Заголовок : MVO Kubik v Kubike @DD5.1 AC3, 384 Kbps, 48.0 KHz, 6 ch
Язык : Russian
ServiceKind/String : Complete Main
Default : Нет
Forced : Нет
Аудио #7
Идентификатор : 12
Формат : AC-3
Формат/Информация : Audio Coding 3
Коммерческое название : Dolby Digital
Идентификатор кодека : A_AC3
Продолжительность : 1 ч. 0 м.
Вид битрейта : Постоянный
Битрейт : 384 Кбит/сек
Каналы : 6 каналов
ChannelLayout : L R C LFE Ls Rs
Частота : 48,0 КГц
Частота кадров : 31,250 кадров/сек (1536 SPF)
Метод сжатия : С потерями
Задержка видео : -83 мс.
Размер потока : 166 Мбайт (4%)
Заголовок : MVO TVShows @DD5.1 AC3, 384 Kbps, 48.0 KHz, 6 ch
Язык : Russian
ServiceKind/String : Complete Main
Default : Нет
Forced : Нет
Текст #1
Идентификатор : 2
Формат : UTF-8
Идентификатор кодека : S_TEXT/UTF8
Идентификатор кодека/Информация : UTF-8 Plain Text
Продолжительность : 58 м. 19 с.
Битрейт : 88 бит/сек
ElementCount : 747
Размер потока : 37,9 Кбайт (0%)
Заголовок : Russian
Язык : Russian
Default : Да
Forced : Нет
Текст #2
Идентификатор : 3
Формат : UTF-8
Идентификатор кодека : S_TEXT/UTF8
Идентификатор кодека/Информация : UTF-8 Plain Text
Продолжительность : 58 м. 20 с.
Битрейт : 63 бит/сек
ElementCount : 1016
Размер потока : 27,0 Кбайт (0%)
Заголовок : Original - SDH
Язык : English
Default : Нет
Forced : Нет
Текст #3
Идентификатор : 4
Формат : UTF-8
Идентификатор кодека : S_TEXT/UTF8
Идентификатор кодека/Информация : UTF-8 Plain Text
Продолжительность : 57 м. 31 с.
Битрейт : 63 бит/сек
ElementCount : 1002
Размер потока : 26,9 Кбайт (0%)
Заголовок : Original
Язык : English
Default : Нет
Forced : Нет
Текст #4
Идентификатор : 11
Формат : UTF-8
Идентификатор кодека : S_TEXT/UTF8
Идентификатор кодека/Информация : UTF-8 Plain Text
Продолжительность : 46 м. 35 с.
Битрейт : 2 бит/сек
ElementCount : 17
Размер потока : 969 байт (0%)
Заголовок : Russian-Forced
Язык : Russian
Default : Нет
Forced : Нет
Меню
00:00:00.000 : en:Amazon Original
00:00:05.000 : en:Title Sequence
00:00:18.000 : en:Opening Credits
00:00:29.000 : en:The history of The Great War
00:01:49.000 : en:Fleeing from Tirnanoc
00:08:00.000 : en:Philo works on a case in The Burgue
00:14:29.000 : en:The wreckage from the ship
00:15:22.000 : en:Political leanings in The Burgue
00:19:02.000 : en:Philo chases down a lead
00:20:45.000 : en:Vignette's fate after the shipwreck
00:26:00.000 : en:Philo attends a protest meeting
00:28:46.000 : en:Philo experiences favoritism
00:31:48.000 : en:Running errands leads to an old friend
00:37:55.000 : en:Philo gets reprimanded
00:40:26.000 : en:Vignette vows revenge
00:41:05.000 : en:Greeting the new neighbors
00:42:51.000 : en:Jonah has a little fun
00:45:22.000 : en:Looking for a fish in the sea
00:50:34.000 : en:Vignette comes for Philo
00:57:04.000 : en:The darkness is coming...
00:58:33.000 : en:End Credits
--

Скриншоты

-- --

Как закачать отдельный файл

1. Открыть торрент
2. Снять галки с тех файлов торрента, которые мы не хотим закачивать. Оставляем только на нужных нам файлах (файле).
3. Нажать О.К.
В клиенте utorrent
Инструкция
1) Открыть торрент

2) Снять галки с тех файлов торрента, которые мы не хотим закачивать:
* либо вручную, снимая с каждого файла галку( скрин №1)
* либо, нажав кнопку "Снять метки (Select None)", сняв сразу со всех файлов(скрин №2)
№1

№2

Оставляем только на нужных нам файлах (файле).

3)Нажать О.К
-- -- --Внимание!!! 22.10. 2019. РАЗДАЧА ОБНОВЛЕНА. ДОБАВЛЕНА - ЗВУКОВАЯ ДОРОЖКА ОТ Кубик в Кубе ВО ВСЕ ЭПИЗОДЫ . ФИНАЛ СЕЗОНА. ОБНОВИТЕ ТОРЕНТ ФАЙЛ. ПРИЯТНОГО ПРОСМОТРА . Поблагодарить:
ЯД: 410017546713876
--Релиз от: Nikolai.Baranov & PIRATIYA -- -- -- --Время раздачи : 24/7---

_________________

Легко быть оптимистом, когда судьба не валит с ног тяжелыми ударами, а лишь иногда легонько шлепает по заднице.
[Торрент-статистика]
[Профиль]  [ЛС] 
Показать сообщения:    
Ответить на тему

Текущее время: Сегодня 17:47

Часовой пояс: GMT + 4



Вы не можете начинать темы
Вы не можете отвечать на сообщения
Вы не можете редактировать свои сообщения
Вы не можете удалять свои сообщения
Вы не можете голосовать в опросах
Вы не можете прикреплять файлы к сообщениям
Вы не можете скачивать файлы