Заточенные кепки (Острые козырьки) / Peaky Blinders (Сезон 4-5 , Серия 1-12 из 12) (Колм МакКарти, Тим Милантс) [2017-2019, Драма, криминал,BDRip,WEB-DLRip 1080p] [LostFilm+Kubik v Kubike+TVShows+AlexFilm +ENG]+[Subs Rus , ENG]

Ответить на тему
 
Автор
Сообщение

Враг Нароода ®

Пол:

Стаж: 1 год 10 месяцев

Сообщений: 142

Репутация: 153 [+] [-]

Откуда: Красногорск

Пост 31-Авг-2019 21:02

[Цитировать] 

-- --Заточенные кепки (Острые козырьки)/ Peaky Blinders Сезон 4 - 5 , Серия 1-12 из 12 -Полный
Комплект
-- --Год выпуска:2017 - 2019
Выпущено: Великобритания, BBC Television Centre, Caryn Mandabach Productions, Tiger Aspect Productions
Жанр: Драма, криминал
Продолжительность: 00:58:00
Сезон: 4-5
Серия:1-12
Количество серий в сезоне:12--Озвучка #1: Профессиональный многоголосый - LostFilm - Русский
Озвучка #2: Профессиональный многоголосый - Kubik v Kubike - Русский
Озвучка #3: Профессиональный многоголосый - TVShows - Русский
Озвучка #4: Профессиональный многоголосый - AlexFilm - Русский
Озвучка #5: Профессиональный многоголосый -Английский - Оригинал
Субтитры: Russian , English, English SDH
--Релиз Без Рекламы - В сериале Ненормативная лексика --MDB 8.8 --Режиссеры:
Колм МакКарти, Тим Милантс, Дэвид Кэффри--В ролях: : Киллиан Мёрфи, Хелен МакКрори, Пол Андерсон, Софи Рандл, Нед Деннехи, Джо Коул, Йен Пек, Финн Коул, Гарри Киртон, Пакки Ли-- Британский сериал о криминальном мире Бирмингема 20-х годов прошлого века, в котором многолюдная семья Шелби стала одной из самых жестоких и влиятельных гангстерских банд послевоенного времени. Фирменным знаком группировки, промышлявшей грабежами и азартными играми, стали зашитые в козырьки лезвия.-- ---

Тех Данные:

Качество :BDRip - HEVC 10bit - 1080p - 4 Сезон
Формат: MKV
Видео кодек: H265
Видео: 3234Кбит/сек,1920х1036(1.851),в 25.000кадр/сек, HEVC (Main10@L4@Main)--Аудио Кодек:AC3
Аудио #1:AC3 640 Kbps, 48.0 KHz, 6 ch- Lostfilm -Русский
Аудио #2:AC3 384 Kbps, 48.0 KHz, 6 ch-Kubik v Kubike -Русский
Аудио #3:AC3 384 Kbps, 48.0 KHz, 6 ch-AlexFilm -Русский
Аудио #4: Original@DD5.1 AC3 ,640 Kbps, 48.0 KHz, 6 ch - English - Оригинал--Качество :WEB-DLRip - HEVC 10bit - 1080p - 5 Сезон
Формат: MKV
Видео кодек: H265
Видео: 1427Кбит/сек,1920х960(2.000),в 25.000кадр/сек, HEVC (Main10@L4@Main)--Аудио Кодек:AC3
Аудио #1:AC3 640 Kbps, 48.0 KHz, 6 ch- Lostfilm -Русский
Аудио #2:AC3 384 Kbps, 48.0 KHz, 6 ch-Kubik v Kubike -Русский
Аудио #3:AC3 384 Kbps, 48.0 KHz, 6 ch-TVShows -Русский
Аудио #4:AC3 384 Kbps, 48.0 KHz, 6 ch-AlexFilm -Русский
Аудио #5: Original@DD5.1 E-AC3 ,640 Kbps, 48.0 KHz, 6 ch - English - Оригинал
--

Доп. информация:

Звуковая дорожка сделана путем наложения чистого голоса озвучивателей на центральный канал оригинальной дорожки. Качество идентично звуковой дорожке.
--

Список эпизодов сезона

4 Сезон
4 сезон 1 серия - Петля - The Noose
4 сезон 2 серия - Дикари - Heathens
4 сезон 3 серия - Черный дрозд - Blackbird
4 сезон 4 серия - Опасная - Dangerous
4 сезон 5 серия - Дуэль - The Duel
4 сезон 6 серия - Компания - The Company

5 Сезон
5 сезон 1 серия - Черный вторник - Black Tuesday
5 сезон 2 серия - Черные коты - Black Cats
5 сезон 3 серия - Стратегия - Strategy
5 сезон 4 серия - Пируэт - The Loop
5 сезон 5 серия - Шок - The Shock
5 сезон 6 серия - Мистер Джонс - Mr. Jones
--

MediaInfo сезона 4 Сезона

Общее
Уникальный идентификатор : 310450711612934316246762034185739342656 (0xE98EA1D63B56599BD89D020F614A9340)
Полное имя : C:\Users\Russian Patriot\Downloads\Острые козырьки - Peaky Blinders\Peaky_Blinders_2019_S04-S05_HEVC- 10Bit_Н265_DD5.1_N.B_HD_1080_4xRus_Eng\S04\Peaky_Blinders_2017_S04E01_HEVC_Н265_DD5.1_N.B_HD_1080_3xRus_Eng.mkv
Формат : Matroska
Версия формата : Version 4
Размер файла : 2,14 Гбайт
Продолжительность : 57 м. 54 с.
Общий поток : 5284 Кбит/сек
Название фильма : Peaky Blinderss 2017 S04E01 @ Nikolai.Baranov & PIRATIYA
Дата кодирования : UTC 2019-09-12 06:52:36
Программа кодирования : mkvmerge v37.0.0 ('Leave It') 64-bit
Библиотека кодирования : libebml v1.3.9 + libmatroska v1.5.2 / Lavf58.20.100
Обложка : Yes
Attachments : cover.jpg
Видео
Идентификатор : 1
Формат : HEVC
Формат/Информация : High Efficiency Video Coding
Профиль формата : Main 10@L4@Main
Идентификатор кодека : V_MPEGH/ISO/HEVC
Продолжительность : 57 м. 54 с.
Битрейт : 3234 Кбит/сек
Ширина : 1920 пикселей
Высота : 1036 пикселей
Соотношение сторон : 1,85:1
Режим частоты кадров : Постоянный
Частота кадров : 25,000 кадров/сек
Цветовое пространство : YUV
Субдискретизация насыщенности : 4:2:0
Битовая глубина : 10 бит
Бит/(Пиксели*Кадры) : 0.065
Размер потока : 1,31 Гбайт (61%)
Заголовок : Peaky_Blinders_2017_S04E01_HEVC_Н265_DD5.1_N.B_HD_1080_3xRus_Eng
Библиотека кодирования : x265 2.7+1-2aa737a99f51:[Windows][MSVC 1900][64 bit] 10bit
Настройки программы : cpuid=1173503 / frame-threads=3 / numa-pools=8 / wpp / no-pmode / no-pme / no-psnr / no-ssim / log-level=2 / input-csp=1 / input-res=1920x1036 / interlace=0 / total-frames=86851 / level-idc=0 / high-tier=1 / uhd-bd=0 / ref=5 / no-allow-non-conformance / no-repeat-headers / annexb / no-aud / no-hrd / info / hash=0 / no-temporal-layers / open-gop / min-keyint=25 / keyint=250 / gop-lookahead=0 / bframes=8 / b-adapt=2 / b-pyramid / bframe-bias=0 / rc-lookahead=80 / lookahead-slices=4 / scenecut=40 / radl=0 / no-intra-refresh / ctu=64 / min-cu-size=8 / rect / no-amp / max-tu-size=32 / tu-inter-depth=1 / tu-intra-depth=1 / limit-tu=0 / rdoq-level=2 / dynamic-rd=0.00 / no-ssim-rd / signhide / no-tskip / nr-intra=0 / nr-inter=0 / no-constrained-intra / no-strong-intra-smoothing / max-merge=4 / limit-refs=3 / limit-modes / me=3 / subme=5 / merange=57 / temporal-mvp / weightp / weightb / no-analyze-src-pics / deblock=-3:-3 / no-sao / no-sao-non-deblock / rd=4 / no-early-skip / no-rskip / no-fast-intra / no-tskip-fast / no-cu-lossless / no-b-intra / no-splitrd-skip / rdpenalty=0 / psy-rd=1.50 / psy-rdoq=2.00 / no-rd-refine / no-lossless / cbqpoffs=0 / crqpoffs=0 / rc=crf / crf=20.0 / qcomp=0.60 / qpstep=4 / stats-write=0 / stats-read=0 / ipratio=1.40 / pbratio=1.30 / aq-mode=3 / aq-strength=1.00 / cutree / zone-count=0 / no-strict-cbr / qg-size=32 / no-rc-grain / qpmax=69 / qpmin=0 / no-const-vbv / sar=0 / overscan=0 / videoformat=5 / range=0 / colorprim=2 / transfer=2 / colormatrix=2 / chromaloc=0 / display-window=0 / max-cll=0,0 / min-luma=0 / max-luma=1023 / log2-max-poc-lsb=8 / vui-timing-info / vui-hrd-info / slices=1 / no-opt-qp-pps / no-opt-ref-list-length-pps / no-multi-pass-opt-rps / scenecut-bias=0.05 / no-opt-cu-delta-qp / no-aq-motion / no-hdr / no-hdr-opt / no-dhdr10-opt / analysis-reuse-level=5 / scale-factor=0 / refine-intra=0 / refine-inter=0 / refine-mv=0 / no-limit-sao / ctu-info=0 / no-lowpass-dct / refine-mv-type=0 / copy-pic=1
Язык : Russian
Default : Да
Forced : Нет
Аудио #1
Идентификатор : 5
Формат : AC-3
Формат/Информация : Audio Coding 3
Коммерческое название : Dolby Digital
Идентификатор кодека : A_AC3
Продолжительность : 57 м. 47 с.
Вид битрейта : Постоянный
Битрейт : 640 Кбит/сек
Каналы : 6 каналов
ChannelLayout : L R C LFE Ls Rs
Частота : 48,0 КГц
Частота кадров : 31,250 кадров/сек (1536 SPF)
Метод сжатия : С потерями
Задержка видео : -80 мс.
Размер потока : 265 Мбайт (12%)
Заголовок : MVO LostFilm @DD5.1 AC3, 640 Kbps, 48.0 KHz, 6 ch
Язык : Russian
ServiceKind/String : Complete Main
Default : Да
Forced : Нет
Аудио #2
Идентификатор : 6
Формат : AC-3
Формат/Информация : Audio Coding 3
Коммерческое название : Dolby Digital
Идентификатор кодека : A_AC3
Продолжительность : 57 м. 52 с.
Вид битрейта : Постоянный
Битрейт : 384 Кбит/сек
Каналы : 6 каналов
ChannelLayout : L R C LFE Ls Rs
Частота : 48,0 КГц
Частота кадров : 31,250 кадров/сек (1536 SPF)
Метод сжатия : С потерями
Задержка видео : -80 мс.
Размер потока : 159 Мбайт (7%)
Заголовок : MVO AlexFilm @DD5.1 AC3, 384 Kbps, 48.0 KHz, 6 ch
Язык : Russian
ServiceKind/String : Complete Main
Default : Нет
Forced : Нет
Аудио #3
Идентификатор : 7
Формат : AC-3
Формат/Информация : Audio Coding 3
Коммерческое название : Dolby Digital
Идентификатор кодека : A_AC3
Продолжительность : 57 м. 50 с.
Вид битрейта : Постоянный
Битрейт : 384 Кбит/сек
Каналы : 6 каналов
ChannelLayout : L R C LFE Ls Rs
Частота : 48,0 КГц
Частота кадров : 31,250 кадров/сек (1536 SPF)
Метод сжатия : С потерями
Задержка видео : -80 мс.
Размер потока : 159 Мбайт (7%)
Заголовок : MVO Kubik v Kubike @DD5.1 AC3, 384 Kbps, 48.0 KHz, 6 ch
Язык : Russian
ServiceKind/String : Complete Main
Default : Нет
Forced : Нет
Аудио #4
Идентификатор : 8
Формат : AC-3
Формат/Информация : Audio Coding 3
Коммерческое название : Dolby Digital
Идентификатор кодека : A_AC3
Продолжительность : 57 м. 53 с.
Вид битрейта : Постоянный
Битрейт : 640 Кбит/сек
Каналы : 6 каналов
ChannelLayout : L R C LFE Ls Rs
Частота : 48,0 КГц
Частота кадров : 31,250 кадров/сек (1536 SPF)
Метод сжатия : С потерями
Задержка видео : -80 мс.
Размер потока : 265 Мбайт (12%)
Заголовок : Original@DD5.1 AC3 ,640 Kbps, 48.0 KHz, 6 ch
Язык : English
ServiceKind/String : Complete Main
Default : Нет
Forced : Нет
Текст #1
Идентификатор : 2
Формат : UTF-8
Идентификатор кодека : S_TEXT/UTF8
Идентификатор кодека/Информация : UTF-8 Plain Text
Продолжительность : 56 м. 49 с.
Битрейт : 82 бит/сек
ElementCount : 662
Размер потока : 34,3 Кбайт (0%)
Заголовок : Rus
Язык : Russian
Default : Да
Forced : Нет
Текст #2
Идентификатор : 3
Формат : UTF-8
Идентификатор кодека : S_TEXT/UTF8
Идентификатор кодека/Информация : UTF-8 Plain Text
Продолжительность : 57 м. 13 с.
Битрейт : 59 бит/сек
ElementCount : 782
Размер потока : 25,0 Кбайт (0%)
Заголовок : Original - SDH
Язык : English
Default : Нет
Forced : Нет
Текст #3
Идентификатор : 4
Формат : UTF-8
Идентификатор кодека : S_TEXT/UTF8
Идентификатор кодека/Информация : UTF-8 Plain Text
Продолжительность : 56 м. 48 с.
Битрейт : 58 бит/сек
ElementCount : 746
Размер потока : 24,3 Кбайт (0%)
Заголовок : Original
Язык : English
Default : Нет
Forced : Нет
Меню
00:00:00.000 : en:Chapter 01
00:10:07.840 : en:Chapter 02
00:19:53.600 : en:Chapter 03
00:31:42.720 : en:Chapter 04
00:40:09.400 : en:Chapter 05
00:46:17.520 : en:Chapter 06
--

MediaInfo сезона 5 Сезона

Общее
Уникальный идентификатор : 327203928376831600802822592303998675259 (0xF6292F3219788ED2036776442817A93B)
Полное имя : C:\Users\Russian Patriot\Downloads\Острые козырьки - Peaky Blinders\Peaky_Blinders_2019_S051_HEVC- 10Bit_Н265_DD5.1_N.B_HD_1080_4xRus_Eng\Peaky_Blinders_2019_S05E01_HEVC_Н265_DD5.1_N.B_HD_1080_4xRus_Eng.mkv
Формат : Matroska
Версия формата : Version 4
Размер файла : 1,53 Гбайт
Продолжительность : 56 м. 37 с.
Общий поток : 3862 Кбит/сек
Название фильма : Peaky Blinderss 2019 S05E01 @ Nikolai.Baranov & PIRATIYA
Дата кодирования : UTC 2019-08-31 08:27:10
Программа кодирования : mkvmerge v37.0.0 ('Leave It') 64-bit
Библиотека кодирования : libebml v1.3.9 + libmatroska v1.5.2
Видео
Идентификатор : 1
Формат : HEVC
Формат/Информация : High Efficiency Video Coding
Профиль формата : Main 10@L4@Main
Идентификатор кодека : V_MPEGH/ISO/HEVC
Продолжительность : 56 м. 37 с.
Битрейт : 1427 Кбит/сек
Ширина : 1920 пикселей
Высота : 960 пикселей
Соотношение сторон : 2,000
Режим частоты кадров : Постоянный
Частота кадров : 25,000 кадров/сек
Цветовое пространство : YUV
Субдискретизация насыщенности : 4:2:0
Битовая глубина : 10 бит
Бит/(Пиксели*Кадры) : 0.031
Размер потока : 578 Мбайт (37%)
Заголовок : Peaky_Blinders_2019_S05E01_HEVC_Н265_DD5.1_N.B_HD_1080_4xRus_Eng
Библиотека кодирования : x265 3.1+8-21db162c8622:[Windows][MSVC 1921][64 bit] 10bit
Настройки программы : cpuid=1111039 / frame-threads=4 / numa-pools=16 / wpp / no-pmode / no-pme / no-psnr / no-ssim / log-level=2 / input-csp=1 / input-res=1920x960 / interlace=0 / total-frames=84945 / level-idc=0 / high-tier=1 / uhd-bd=0 / ref=4 / no-allow-non-conformance / no-repeat-headers / annexb / no-aud / no-hrd / info / hash=0 / no-temporal-layers / open-gop / min-keyint=25 / keyint=250 / gop-lookahead=0 / bframes=8 / b-adapt=2 / b-pyramid / bframe-bias=0 / rc-lookahead=50 / lookahead-slices=4 / scenecut=40 / radl=0 / no-splice / no-intra-refresh / ctu=64 / min-cu-size=8 / no-rect / no-amp / max-tu-size=32 / tu-inter-depth=1 / tu-intra-depth=1 / limit-tu=0 / rdoq-level=2 / dynamic-rd=0.00 / no-ssim-rd / signhide / no-tskip / nr-intra=0 / nr-inter=0 / no-constrained-intra / no-strong-intra-smoothing / max-merge=3 / limit-refs=3 / limit-modes / me=3 / subme=3 / merange=57 / temporal-mvp / no-hme / weightp / no-weightb / no-analyze-src-pics / deblock=1:1 / no-sao / no-sao-non-deblock / rd=4 / no-early-skip / no-rskip / no-fast-intra / no-tskip-fast / no-cu-lossless / no-b-intra / no-splitrd-skip / rdpenalty=0 / psy-rd=1.40 / psy-rdoq=1.00 / no-rd-refine / no-lossless / cbqpoffs=0 / crqpoffs=0 / rc=crf / crf=21.0 / qcomp=0.60 / qpstep=4 / stats-write=0 / stats-read=0 / ipratio=1.40 / pbratio=1.30 / aq-mode=2 / aq-strength=1.00 / cutree / zone-count=0 / no-strict-cbr / qg-size=32 / no-rc-grain / qpmax=69 / qpmin=0 / no-const-vbv / sar=0 / overscan=0 / videoformat=5 / range=0 / colorprim=2 / transfer=2 / colormatrix=2 / chromaloc=0 / display-window=0cll=0,0 / min-luma=0 / max-luma=1023 / log2-max-poc-lsb=8 / vui-timing-info / vui-hrd-info / slices=1 / no-opt-qp-pps / no-opt-ref-list-length-pps / no-multi-pass-opt-rps / scenecut-bias=0.05 / no-opt-cu-delta-qp / no-aq-motion / no-hdr / no-hdr-opt / no-dhdr10-opt / no-idr-recovery-sei / analysis-reuse-level=5 / scale-factor=0 / refine-intra=0 / refine-inter=0 / refine-mv=0 / refine-ctu-distortion=0 / no-limit-sao / ctu-info=0 / no-lowpass-dct / refine-analysis-type=0 / copy-pic=1 / max-ausize-factor=1.0 / no-dynamic-refine / no-single-sei / no-hevc-aq / no-svt / no-field / qp-adaptation-range=1.00
Язык : Russian
Default : Да
Forced : Нет
Аудио #1
Идентификатор : 5
Формат : AC-3
Формат/Информация : Audio Coding 3
Коммерческое название : Dolby Digital
Идентификатор кодека : A_AC3
Продолжительность : 56 м. 37 с.
Вид битрейта : Постоянный
Битрейт : 640 Кбит/сек
Каналы : 6 каналов
ChannelLayout : L R C LFE Ls Rs
Частота : 48,0 КГц
Частота кадров : 31,250 кадров/сек (1536 SPF)
Битовая глубина : 16 бит
Метод сжатия : С потерями
Размер потока : 259 Мбайт (17%)
Заголовок : MVO LostFilm @DD5.1 AC3, 640 Kbps, 48.0 KHz, 6 ch
Язык : Russian
ServiceKind/String : Complete Main
Default : Да
Forced : Нет
Аудио #2
Идентификатор : 6
Формат : AC-3
Формат/Информация : Audio Coding 3
Коммерческое название : Dolby Digital
Идентификатор кодека : A_AC3
Продолжительность : 56 м. 37 с.
Вид битрейта : Постоянный
Битрейт : 384 Кбит/сек
Каналы : 6 каналов
ChannelLayout : L R C LFE Ls Rs
Частота : 48,0 КГц
Частота кадров : 31,250 кадров/сек (1536 SPF)
Битовая глубина : 16 бит
Метод сжатия : С потерями
Размер потока : 156 Мбайт (10%)
Заголовок : MVO TVShows @DD5.1 AC3, 384 Kbps, 48.0 KHz, 6 ch
Язык : Russian
ServiceKind/String : Complete Main
Default : Нет
Forced : Нет
Аудио #3
Идентификатор : 7
Формат : AC-3
Формат/Информация : Audio Coding 3
Коммерческое название : Dolby Digital
Идентификатор кодека : A_AC3
Продолжительность : 56 м. 37 с.
Вид битрейта : Постоянный
Битрейт : 384 Кбит/сек
Каналы : 6 каналов
ChannelLayout : L R C LFE Ls Rs
Частота : 48,0 КГц
Частота кадров : 31,250 кадров/сек (1536 SPF)
Битовая глубина : 16 бит
Метод сжатия : С потерями
Размер потока : 156 Мбайт (10%)
Заголовок : MVO AlexFilm @DD5.1 AC3, 384 Kbps, 48.0 KHz, 6 ch
Язык : Russian
ServiceKind/String : Complete Main
Default : Нет
Forced : Нет
Аудио #4
Идентификатор : 8
Формат : AC-3
Формат/Информация : Audio Coding 3
Коммерческое название : Dolby Digital
Идентификатор кодека : A_AC3
Продолжительность : 56 м. 37 с.
Вид битрейта : Постоянный
Битрейт : 384 Кбит/сек
Каналы : 6 каналов
ChannelLayout : L R C LFE Ls Rs
Частота : 48,0 КГц
Частота кадров : 31,250 кадров/сек (1536 SPF)
Битовая глубина : 16 бит
Метод сжатия : С потерями
Размер потока : 156 Мбайт (10%)
Заголовок : MVO Kubik v Kubike @DD5.1 AC3, 384 Kbps, 48.0 KHz, 6 ch
Язык : Russian
ServiceKind/String : Complete Main
Default : Нет
Forced : Нет
Аудио #5
Идентификатор : 9
Формат : AC-3
Формат/Информация : Audio Coding 3
Коммерческое название : Dolby Digital
Идентификатор кодека : A_AC3
Продолжительность : 56 м. 37 с.
Вид битрейта : Постоянный
Битрейт : 640 Кбит/сек
Каналы : 6 каналов
ChannelLayout : L R C LFE Ls Rs
Частота : 48,0 КГц
Частота кадров : 31,250 кадров/сек (1536 SPF)
Битовая глубина : 16 бит
Метод сжатия : С потерями
Размер потока : 259 Мбайт (17%)
Заголовок : Original@DD5.1 AC3 ,640 Kbps, 48.0 KHz, 6 ch
Язык : English
ServiceKind/String : Complete Main
Default : Нет
Forced : Нет
Текст #1
Идентификатор : 2
Формат : UTF-8
Идентификатор кодека : S_TEXT/UTF8
Идентификатор кодека/Информация : UTF-8 Plain Text
Продолжительность : 54 м. 45 с.
Битрейт : 94 бит/сек
ElementCount : 715
Размер потока : 37,9 Кбайт (0%)
Заголовок : Rus
Язык : Russian
Default : Да
Forced : Нет
Текст #2
Идентификатор : 3
Формат : UTF-8
Идентификатор кодека : S_TEXT/UTF8
Идентификатор кодека/Информация : UTF-8 Plain Text
Продолжительность : 54 м. 43 с.
Битрейт : 62 бит/сек
ElementCount : 758
Размер потока : 25,1 Кбайт (0%)
Заголовок : Original - SDH
Язык : English
Default : Нет
Forced : Нет
Текст #3
Идентификатор : 4
Формат : UTF-8
Идентификатор кодека : S_TEXT/UTF8
Идентификатор кодека/Информация : UTF-8 Plain Text
Продолжительность : 54 м. 43 с.
Битрейт : 57 бит/сек
ElementCount : 693
Размер потока : 23,1 Кбайт (0%)
Заголовок : Original
Язык : English
Default : Нет
Forced : Нет
Меню
00:00:00.000 : :Глава 01 / :Глава 01 / :Глава 01 / :Глава 01 / :Глава 01 / :Глава 01 / :Глава 01 / :Глава 01 / :Глава 01
--

Скриншоты

4 Сезон

5 Сезон

-- 4 Сезон-- 5 Сезон--

Как закачать отдельный файл

1. Открыть торрент
2. Снять галки с тех файлов торрента, которые мы не хотим закачивать. Оставляем только на нужных нам файлах (файле).
3. Нажать О.К.
В клиенте utorrent
Инструкция
1) Открыть торрент

2) Снять галки с тех файлов торрента, которые мы не хотим закачивать:
* либо вручную, снимая с каждого файла галку( скрин №1)
* либо, нажав кнопку "Снять метки (Select None)", сняв сразу со всех файлов(скрин №2)
№1

№2

Оставляем только на нужных нам файлах (файле).

3)Нажать О.К
-- -- --Внимание!!! 09.10. 2019. РАЗДАЧА ОБНОВЛЕНА. ДОБАВЛЕНА ЗВУКОВАЯ ДОРОЖКА ОТ Kubik v Kubike ФИНАЛ 5СЕЗОНА. ОБНОВИТЕ ТОРЕНТ ФАЙЛ. ПРИЯТНОГО ПРОСМОТРА . Поблагодарить:
ЯД: 410017546713876
--Релиз от: Nikolai.Baranov & PIRATIYA -- -- -- --Время раздачи : 24/7---

_________________

Легко быть оптимистом, когда судьба не валит с ног тяжелыми ударами, а лишь иногда легонько шлепает по заднице.
[Торрент-статистика]
[Профиль]  [ЛС] 
Показать сообщения:    
Ответить на тему

Текущее время: Сегодня 17:00

Часовой пояс: GMT + 4



Вы не можете начинать темы
Вы не можете отвечать на сообщения
Вы не можете редактировать свои сообщения
Вы не можете удалять свои сообщения
Вы не можете голосовать в опросах
Вы не можете прикреплять файлы к сообщениям
Вы не можете скачивать файлы