Люди в черном: Интернэшнл / Men in Black International (Ф. Гэри Грей) [2019, Фантастика, боевик, комедия, приключения,WEB-DLRip 1080p] [iTunes+HDRezka+Ukr+ENG]+[Subs Rus+ENG]

Ответить на тему
 
Автор
Сообщение

Враг Нароода ®

Пол:

Стаж: 1 год 8 месяцев

Сообщений: 124

Репутация: 120 [+] [-]

Откуда: Красногорск

Пост 23-Авг-2019 23:19

[Цитировать] 

hr]-Люди в черном: Интернэшнл / Men in Black International -- --Год выпуска: 2019
Выпущено: : Великобритания, США, Columbia Pictures, Sony Pictures Entertainment (SPE), Amblin Entertainment
Жанр: Фантастика, боевик, комедия, приключения
Продолжительность:01:54:57--Озвучка #1: Дублированный - iTunes - Русский
Озвучка #2: Профессиональный многоголосый - HDRezka Studio - Русский
Озвучка #3: Дублированный - iTunes - Украинский
Озвучка #4: Профессиональный многоголосый -Английский - Оригинал
Субтитры: Русские,English, English SDH
--Релиз Без Рекламы --MDB 5.6 --Режиссеры:
Ф. Гэри Грей--В ролях: : Тесса Томпсон, Крис Хемсворт, Кумэйл Нанджиани, Ребекка Фергюсон (II), Эмма Томпсон, Лиам Нисон, Рейф Сполл, Кайван Новак, Спенсер Уайлдинг, Марси Хэрриэл, Джесс Радомска, Виктория Фэйт, Аня Совински, Инни Клемонс, Стивен Уайт, Джефф Ким-- уперкиллер Джон Уик после нарушения кодекса тайной гильдии ассасинов получает статус изгоя - экскомьюникадо. За его голову назначена цена в 14 миллионов долларов, и армия самых жестоких профессиональных убийц со всего мира открывает на него кровавую охоту.-- --Качество :WEB-DLRip - HEVC 10bit - 1080p
Формат: MKV
Видео кодек: H265
Видео: 4042Кбит/сек,1920х960(2.000),в 23.976кадр/сек, HEVC (Main10@L4.1@High)--Аудио Кодек:AAC-AC3 - DTS
Аудио #1: DUB -Rus- iTunes@DD5.1 AAC, 466 Kbps, 48.0 KHz, 6 ch - Русский
Аудио #2: MVO HDRezka Studio @DD5.1 AAC, 279 Kbps, 48.0 KHz, 6 ch - Русский
Аудио #3: DUB Ukr-Line @DD5.1 AAC, 296 Kbps, 48.0 KHz, 6 ch - Украинский
Аудио #4: Original@DD5.1 AC3 ,640 Kbps, 48.0 KHz, 6 ch - - English
Аудио #5: Original@DTS ,3797 Kbps, 48.0 KHz, 8 ch - - English--

Доп. информация:

Звуковая дорожка сделана путем наложения чистого голоса озвучивателей на центральный канал оригинальной дорожки. Качество идентично звуковой дорожке.
--

MediaInfo

Общее
Уникальный идентификатор : 156486607054828174128169912287868040643 (0x75BA3967F095B609390CDB3BC81935C3)
Полное имя : C:\Nikolai.Baranov & PIRATIYA\Men.in.Black.International.2019_HEVC- 10Bit_Н265_DD5.1_N.B_HD_1080_2хRus_Ukr_Eng\Men.in.Black.International.2019_HEVC- 10Bit_Н265_DD5.1_N.B_HD_1080_2хRus_Ukr_Eng.mkv
Формат : Matroska
Версия формата : Version 4
Размер файла : 7,78 Гбайт
Продолжительность : 1 ч. 54 м.
Общий поток : 9700 Кбит/сек
Название фильма : Men in Black International 2019 @ Nikolai.Baranov & PIRATIYA
Дата кодирования : UTC 2019-08-23 14:20:29
Программа кодирования : mkvmerge v36.0.0 ('Is That Jazz?') 64-bit
Библиотека кодирования : libebml v1.3.9 + libmatroska v1.5.2
Видео
Идентификатор : 1
Формат : HEVC
Формат/Информация : High Efficiency Video Coding
Профиль формата : Main 10@L4.1@High
Идентификатор кодека : V_MPEGH/ISO/HEVC
Продолжительность : 1 ч. 54 м.
Битрейт : 4042 Кбит/сек
Ширина : 1920 пикселей
Высота : 960 пикселей
Соотношение сторон : 2,000
Режим частоты кадров : Постоянный
Частота кадров : 23,976 (24000/1001) кадра/сек
Цветовое пространство : YUV
Субдискретизация насыщенности : 4:2:0
Битовая глубина : 10 бит
Бит/(Пиксели*Кадры) : 0.091
Размер потока : 3,24 Гбайт (42%)
Заголовок : Men.in.Black.International.2019_HEVC- 10Bit_Н265_DD5.1_N.B_HD_1080_2хRus_Ukr_Eng
Язык : Russian
Default : Да
Forced : Нет
Цветовой диапазон : Limited
Основные цвета : BT.709
Характеристики трансфера : BT.709
Коэффициенты матрицы : BT.709
Аудио #1
Идентификатор : 5
Формат : AAC LC
Формат/Информация : Advanced Audio Codec Low Complexity
Идентификатор кодека : A_AAC-2
Продолжительность : 1 ч. 54 м.
Битрейт : 466 Кбит/сек
Каналы : 6 каналов
ChannelLayout : C L R Ls Rs LFE
Частота : 48,0 КГц
Частота кадров : 46,875 кадров/сек (1024 SPF)
Метод сжатия : С потерями
Размер потока : 383 Мбайт (5%)
Заголовок : DUB -Rus- iTunes@DD5.1 AAC, 466 Kbps, 48.0 KHz, 6 ch
Язык : Russian
Default : Да
Forced : Нет
Аудио #2
Идентификатор : 6
Формат : AAC LC
Формат/Информация : Advanced Audio Codec Low Complexity
Идентификатор кодека : A_AAC-2
Продолжительность : 1 ч. 54 м.
Битрейт : 288 Кбит/сек
Каналы : 6 каналов
ChannelLayout : C L R Ls Rs LFE
Частота : 48,0 КГц
Частота кадров : 46,875 кадров/сек (1024 SPF)
Метод сжатия : С потерями
Размер потока : 232 Мбайт (3%)
Заголовок : MVO HDRezka Studio @DD5.1 AAC, 279 Kbps, 48.0 KHz, 6 ch
Язык : Russian
Default : Нет
Forced : Нет
Аудио #3
Идентификатор : 7
Формат : AAC LC
Формат/Информация : Advanced Audio Codec Low Complexity
Идентификатор кодека : A_AAC-2
Продолжительность : 1 ч. 54 м.
Битрейт : 297 Кбит/сек
Каналы : 6 каналов
ChannelLayout : C L R Ls Rs LFE
Частота : 48,0 КГц
Частота кадров : 46,875 кадров/сек (1024 SPF)
Метод сжатия : С потерями
Размер потока : 244 Мбайт (3%)
Заголовок : DUB Ukr-Line @DD5.1 AAC, 296 Kbps, 48.0 KHz, 6 ch
Язык : Ukrainian
Default : Нет
Forced : Нет
Аудио #4
Идентификатор : 8
Формат : AC-3
Формат/Информация : Audio Coding 3
Коммерческое название : Dolby Digital
Идентификатор кодека : A_AC3
Продолжительность : 1 ч. 54 м.
Вид битрейта : Постоянный
Битрейт : 640 Кбит/сек
Каналы : 6 каналов
ChannelLayout : L R C LFE Ls Rs
Частота : 48,0 КГц
Частота кадров : 31,250 кадров/сек (1536 SPF)
Битовая глубина : 16 бит
Метод сжатия : С потерями
Размер потока : 526 Мбайт (7%)
Заголовок : Original@DD5.1 AC3 ,640 Kbps, 48.0 KHz, 6 ch
Язык : English
ServiceKind/String : Complete Main
Default : Нет
Forced : Нет
Аудио #5
Идентификатор : 9
Формат : DTS
Формат/Информация : Digital Theater Systems
Идентификатор кодека : A_DTS
Продолжительность : 1 ч. 54 м.
Вид битрейта : Постоянный
Битрейт : 3968 Кбит/сек
Каналы : 6 каналов
ChannelLayout : C L R Ls Rs LFE
Частота : 48,0 КГц
Частота кадров : 46,875 кадров/сек (1024 SPF)
Битовая глубина : 16 бит
Метод сжатия : С потерями
Размер потока : 3,18 Гбайт (41%)
Заголовок : Original@DTS 3968 Kbps, 48.0 KHz, 6 ch
Язык : English
Default : Нет
Forced : Нет
Текст #1
Идентификатор : 2
Формат : UTF-8
Идентификатор кодека : S_TEXT/UTF8
Идентификатор кодека/Информация : UTF-8 Plain Text
Продолжительность : 1 ч. 13 м.
Битрейт : 0 бит/сек
ElementCount : 14
Размер потока : 439 байт (0%)
Заголовок : Russian-Forced
Язык : Russian
Default : Да
Forced : Нет
Текст #2
Идентификатор : 3
Формат : UTF-8
Идентификатор кодека : S_TEXT/UTF8
Идентификатор кодека/Информация : UTF-8 Plain Text
Продолжительность : 1 ч. 53 м.
Битрейт : 68 бит/сек
ElementCount : 2014
Размер потока : 56,6 Кбайт (0%)
Заголовок : Original - SDH
Язык : English
Default : Нет
Forced : Нет
Текст #3
Идентификатор : 4
Формат : UTF-8
Идентификатор кодека : S_TEXT/UTF8
Идентификатор кодека/Информация : UTF-8 Plain Text
Продолжительность : 1 ч. 43 м.
Битрейт : 68 бит/сек
ElementCount : 1706
Размер потока : 51,7 Кбайт (0%)
Заголовок : Original
Язык : English
Default : Нет
Forced : Нет
Меню
00:00:00.000 : en:1
00:07:57.686 : en:2
00:15:32.098 : en:3
00:20:08.581 : en:4
00:27:16.133 : en:5
00:34:28.647 : en:6
00:46:09.263 : en:7
00:50:31.023 : en:8
00:59:00.198 : en:9
01:03:11.908 : en:10
01:10:50.408 : en:11
01:14:34.923 : en:12
01:25:30.202 : en:13
01:28:48.566 : en:14
01:34:28.238 : en:15
01:43:30.821 : en:16
--

Скриншоты

-- -- -- --Релиз от: Nikolai.Baranov & PIRATIYA . Поблагодарить:
ЯД: 410017546713876
-- -- -- --Время раздачи : 24/7---

_________________

Легко быть оптимистом, когда судьба не валит с ног тяжелыми ударами, а лишь иногда легонько шлепает по заднице.
[Торрент-статистика]
[Профиль]  [ЛС] 

krumholzmax

Стаж: 7 лет 3 месяца

Сообщений: 10

Репутация: 0 [+] [-]

Пост 14-Сен-2019 20:56 (спустя 21 день)

[Цитировать] 

И где радающий? Убрать лайк можно?

_________________
MaxK
[Торрент-статистика]
[Профиль]  [ЛС] 
Показать сообщения:    
Ответить на тему

Текущее время: Сегодня 23:06

Часовой пояс: GMT + 4



Вы не можете начинать темы
Вы не можете отвечать на сообщения
Вы не можете редактировать свои сообщения
Вы не можете удалять свои сообщения
Вы не можете голосовать в опросах
Вы не можете прикреплять файлы к сообщениям
Вы не можете скачивать файлы