Джон Уик 3 / John Wick: Chapter 3 - Parabellum (Чад Стахелски) [2019,Боевик, триллер, криминал, BDRip 1080р] [HDRezka+Ukr+ENG]+[Subs ENG]

Ответить на тему
 
Автор
Сообщение

Враг Нароода ®

Пол:

Стаж: 1 год 8 месяцев

Сообщений: 124

Репутация: 120 [+] [-]

Откуда: Красногорск

Пост 17-Авг-2019 10:17

[Цитировать] 

--Джон Уик 3 / John Wick: Chapter 3 - Parabellum -- --Год выпуска: 2019
Выпущено: США , Summit Entertainment, 87Eleven, Lionsgate
Жанр: Боевик, триллер, криминал
Продолжительность:02:10:45--Озвучка #1: Профессиональный многоголосый - HDRezka Studio - Русский
Озвучка #2: Дублированный - Line - Украинский
Озвучка #3: Профессиональный многоголосый -Английский - Оригинал
Субтитры: English, English SDH
--Релиз Без Рекламы --MDB 7.9 --Режиссеры:
Нил Чад Стахелски--В ролях: : Киану Ривз, Холли Берри, Иэн МакШейн, Лоуренс Фишборн, Марк Дакаскос, Азия Диллон, Лэнс Реддик, Тобиаш Сигал, Анжелика Хьюстон, Саид Тагмауи-- уперкиллер Джон Уик после нарушения кодекса тайной гильдии ассасинов получает статус изгоя - экскомьюникадо. За его голову назначена цена в 14 миллионов долларов, и армия самых жестоких профессиональных убийц со всего мира открывает на него кровавую охоту.-- --Качество : BDRip 1080р
Формат: MKV
Видео кодек: H264
Видео: 8931Кбит/сек,1920х800(2.40.1),в 23.976кадр/сек,AVC (High@L4.1)(CABAC/4 Ref Frames)--Аудио Кодек:AAC-
Аудио #1: MVO HDRezka Studio @DD5.1 AАС, 288 Kbps, 48.0 KHz, 6 ch -Русский
Аудио #2: DUB Ukr-Line @DD5.1 AАС, 300 Kbps, 48.0 KHz, 6 ch Line -Украинский
Аудио #3: Original@DD5.1 AАС, 486 Kbps, 48.0 KHz, 6 ch - English
Аудио #4:Original@DTS DD5.1 3968 Kbps, 48.0 KHz, 6 ch - English--

Доп. информация:

Звуковая дорожка сделана путем наложения чистого голоса озвучивателей на центральный канал оригинальной дорожки. Качество идентично звуковой дорожке.
--

MediaInfo

Общее
Уникальный идентификатор : 83105250366170137548081476021931242706 (0x3E857D3085055783A9853A66309C74D2)
Полное имя : C:\Users\Russian Patriot\Downloads\Джон Уик 3 - John Wick Chapter 3 - Parabellum\John,Wick.Chapter 3.Parabellum.2019_Н264_DD5.1_N.B_BDRip_1080_Rus_Ukr_Ukr_Eng\John,Wick.Chapter 3.Parabellum.2019_Н264_DD5.1_N.B_BDRip_1080_Rus_Ukr_Eng.mkv
Формат : Matroska
Версия формата : Version 4
Размер файла : 12,8 Гбайт
Продолжительность : 2 ч. 10 м.
Общий поток : 14,0 Мбит/сек
Название фильма : John Wick Chapter 3 - Parabellum 2019 @ Nikolai.Baranov & PIRATIYA
Дата кодирования : UTC 2019-08-16 13:59:01
Программа кодирования : mkvmerge v36.0.0 ('Is That Jazz?') 64-bit
Библиотека кодирования : libebml v1.3.9 + libmatroska v1.5.2
Видео
Идентификатор : 1
Формат : AVC
Формат/Информация : Advanced Video Codec
Профиль формата : High@L4.1
Настройки формата : CABAC / 4 Ref Frames
Параметр CABAC формата : Да
Параметр RefFrames формата : 4 кадра
Идентификатор кодека : V_MPEG4/ISO/AVC
Продолжительность : 2 ч. 10 м.
Битрейт : 8931 Кбит/сек
Ширина : 1920 пикселей
Высота : 800 пикселей
Соотношение сторон : 2,40:1
Режим частоты кадров : Постоянный
Частота кадров : 23,976 (24000/1001) кадра/сек
Цветовое пространство : YUV
Субдискретизация насыщенности : 4:2:0
Битовая глубина : 8 бит
Тип развёртки : Прогрессивная
Бит/(Пиксели*Кадры) : 0.242
Размер потока : 8,16 Гбайт (64%)
Заголовок : John,Wick.Chapter 3.Parabellum.2019_Н264_DD5.1_N.B_BDRip_1080_Rus_Ukr_Eng
Язык : Russian
Default : Да
Forced : Нет
Цветовой диапазон : Limited
Основные цвета : BT.709
Характеристики трансфера : BT.709
Коэффициенты матрицы : BT.709
Аудио #1
Идентификатор : 4
Формат : AAC LC
Формат/Информация : Advanced Audio Codec Low Complexity
Идентификатор кодека : A_AAC-2
Продолжительность : 2 ч. 10 м.
Битрейт : 288 Кбит/сек
Каналы : 6 каналов
ChannelLayout : C L R Ls Rs LFE
Частота : 48,0 КГц
Частота кадров : 46,875 кадров/сек (1024 SPF)
Метод сжатия : С потерями
Размер потока : 271 Мбайт (2%)
Заголовок : MVO HDRezka Studio @DD5.1 AАС, 288 Kbps, 48.0 KHz, 6 ch
Язык : Russian
Default : Да
Forced : Нет
Аудио #2
Идентификатор : 5
Формат : AAC LC
Формат/Информация : Advanced Audio Codec Low Complexity
Идентификатор кодека : A_AAC-2
Продолжительность : 2 ч. 10 м.
Битрейт : 300 Кбит/сек
Каналы : 6 каналов
ChannelLayout : C L R Ls Rs LFE
Частота : 48,0 КГц
Частота кадров : 46,875 кадров/сек (1024 SPF)
Метод сжатия : С потерями
Размер потока : 281 Мбайт (2%)
Заголовок : DUB Ukr-Line @DD5.1 AАС, 300 Kbps, 48.0 KHz, 6 ch
Язык : Ukrainian
Default : Нет
Forced : Нет
Аудио #3
Идентификатор : 6
Формат : AAC LC
Формат/Информация : Advanced Audio Codec Low Complexity
Идентификатор кодека : A_AAC-2
Продолжительность : 2 ч. 10 м.
Битрейт : 486 Кбит/сек
Каналы : 6 каналов
ChannelLayout : C L R Ls Rs LFE
Частота : 48,0 КГц
Частота кадров : 46,875 кадров/сек (1024 SPF)
Метод сжатия : С потерями
Размер потока : 455 Мбайт (3%)
Заголовок : Original@DD5.1 AАС, 486 Kbps, 48.0 KHz, 6 ch
Язык : English
Default : Нет
Forced : Нет
Аудио #4
Идентификатор : 7
Формат : DTS
Формат/Информация : Digital Theater Systems
Идентификатор кодека : A_DTS
Продолжительность : 2 ч. 10 м.
Вид битрейта : Постоянный
Битрейт : 3968 Кбит/сек
Каналы : 6 каналов
ChannelLayout : C L R Ls Rs LFE
Частота : 48,0 КГц
Частота кадров : 46,875 кадров/сек (1024 SPF)
Битовая глубина : 16 бит
Метод сжатия : С потерями
Размер потока : 3,62 Гбайт (28%)
Заголовок : Original@DTS 3968 Kbps, 48.0 KHz, 6 ch
Язык : English
Default : Нет
Forced : Нет
Текст #1
Идентификатор : 2
Формат : UTF-8
Идентификатор кодека : S_TEXT/UTF8
Идентификатор кодека/Информация : UTF-8 Plain Text
Продолжительность : 2 ч. 0 м.
Битрейт : 32 бит/сек
ElementCount : 1162
Размер потока : 29,1 Кбайт (0%)
Заголовок : Original - SDH
Язык : English
Default : Да
Forced : Нет
Текст #2
Идентификатор : 3
Формат : UTF-8
Идентификатор кодека : S_TEXT/UTF8
Идентификатор кодека/Информация : UTF-8 Plain Text
Продолжительность : 2 ч. 0 м.
Битрейт : 25 бит/сек
ElementCount : 798
Размер потока : 22,3 Кбайт (0%)
Заголовок : Original
Язык : English
Default : Нет
Forced : Нет
Меню
00:00:00.000 : :Глава 01 / :Глава 01 / :Глава 01 / :Глава 01 / :Глава 01 / :Глава 01 / :Глава 01
--

Скриншоты

-- -- -- --Релиз от: Nikolai.Baranov & PIRATIYA . Поблагодарить:
ЯД: 410017546713876
-- -- -- --Время раздачи : 24/7---

_________________

Легко быть оптимистом, когда судьба не валит с ног тяжелыми ударами, а лишь иногда легонько шлепает по заднице.
[Торрент-статистика]
[Профиль]  [ЛС] 
Показать сообщения:    
Ответить на тему

Текущее время: Сегодня 22:55

Часовой пояс: GMT + 4



Вы не можете начинать темы
Вы не можете отвечать на сообщения
Вы не можете редактировать свои сообщения
Вы не можете удалять свои сообщения
Вы не можете голосовать в опросах
Вы не можете прикреплять файлы к сообщениям
Вы не можете скачивать файлы