Годзилла 2: Король монстров / Godzilla: King of the Monsters ( Майкл Догерти) [2019,Фантастика, фэнтези, боевик, приключения,WEB-DLRip 1080p] [iTunes+HDRezka+Ukr+ENG]+[Subs Rus+Ukr+ENG]

Ответить на тему
 
Автор
Сообщение

Враг Нароода ®

Пол:

Стаж: 1 год 7 месяцев

Сообщений: 116

Репутация: 108 [+] [-]

Откуда: Красногорск

Пост 15-Авг-2019 20:31

[Цитировать] 

--Годзилла 2: Король монстров / Godzilla: King of the Monsters -- --Год выпуска: 2019
Выпущено: США, Япония, Warner Bros., Legendary Entertainment, Toho Company
Жанр: Фантастика, фэнтези, боевик, приключения
Продолжительность: 02:11:35--Озвучка #1: Дублированный - iTunes - Русский
Озвучка #2: Профессиональный многоголосый - HDRezka Studio - Русский
Озвучка #3: Дублированный - iTunes - Украинский
Озвучка #4: Профессиональный многоголосый -Английский - Оригинал
Субтитры: Русские, Украинские, Английские,English, English SDH
--Релиз Без Рекламы --MDB 6.5 --Режиссеры:
Майкл Догерти--В ролях: Кайл Чандлер, Вера Фармига, Милли Бобби Браун, Кэн Ватанабэ, Цзыи Чжан, Брэдли Уитфорд, Салли Хокинс, Чарльз Дэнс, Томас Миддлдитч, Аиша Хайндс, О`Ши Джексон мл., Дэвид Стрэтэйрн, Энтони Рамос, Элизабет Ладлоу, Джонатан Ховард, Си Си Эйч Паундер, Джо Мортон, Тайлер Крумли, Келли Гарнер-- История рассказывает о героических усилиях криптозоологического агентства «Монарх» по сдерживанию гигантских монстров. В этот раз против могучего Годзиллы выступают Мотра, Родан и ультимативный кайдзю — трёхголовый монстр Кинг Гидора. Когда эти древние суперхищники, со временем превратившиеся в полузабытые мифы, восстают снова, чтобы сойтись в схватке, человечеству остаётся отойти в сторонку и постараться не погибнуть.-- --Качество :WEB-DLRip 1080p
Формат: MKV
Видео кодек: H264
Видео: 9199Кбит/сек,1920х800(2.40.1),в 23.976кадр/сек,AVC (High@L4)(CABAC/4 Ref Frames)--Аудио Кодек:AAC
Аудио #1: DUB-Rus- iTunes@DD5.1 АC, 448 Kbps, 48.0 KHz, 6 ch- Русский
Аудио #2: MVO HDRezka Studio @DD5.1 AАC, 282 Kbps, 48.0 KHz, 6 ch - Русский
Аудио #3: DUB Ukr-iTunes @DD5.1 AАC, 271 Kbps, 48.0 KHz, 6 ch- Украинский
Аудио #4: Original@DD5.1 AАС ,462 Kbps, 48.0 KHz, 6 ch - English - English--

Доп. информация:

Звуковая дорожка сделана путем наложения чистого голоса озвучивателей на центральный канал оригинальной дорожки. Качество идентично звуковой дорожке.
--

MediaInfo

Общее
Уникальный идентификатор : 34667229897839184626959075824025507823 (0x1A14AA65BD4B4073788215D5903C97EF)
Полное имя : C:\Users\Russian Patriot\Downloads\Годзилла 2 Король монстров - Godzilla King of the Monsters\Godzilla.King.of.the.Monsters.2019.N.B.WEBRip.1080p.2хRus_Ukr_Eng\Godzilla.King.of.the.Monsters.2019.N.B.WEBRip.1080p.2хRus_Ukr_Eng.mkv
Формат : Matroska
Версия формата : Version 4
Размер файла : 9,81 Гбайт
Продолжительность : 2 ч. 11 м.
Общий поток : 10,7 Мбит/сек
Название фильма : Godzilla King of the Monsters 2019 @ Nikolai.Baranov & PIRATIYA
Дата кодирования : UTC 2019-08-15 13:56:42
Программа кодирования : mkvmerge v36.0.0 ('Is That Jazz?') 64-bit
Библиотека кодирования : libebml v1.3.9 + libmatroska v1.5.2
Видео
Идентификатор : 1
Формат : AVC
Формат/Информация : Advanced Video Codec
Профиль формата : High@L4
Настройки формата : CABAC / 4 Ref Frames
Параметр CABAC формата : Да
Параметр RefFrames формата : 4 кадра
Идентификатор кодека : V_MPEG4/ISO/AVC
Продолжительность : 2 ч. 11 м.
Вид битрейта : Постоянный
Битрейт : 9199 Кбит/сек
Номинальный битрейт : 10000 Кбит/сек
Ширина : 1920 пикселей
Высота : 800 пикселей
Соотношение сторон : 2,40:1
Режим частоты кадров : Постоянный
Частота кадров : 23,976 (24000/1001) кадра/сек
Цветовое пространство : YUV
Субдискретизация насыщенности : 4:2:0
Битовая глубина : 8 бит
Тип развёртки : Прогрессивная
Бит/(Пиксели*Кадры) : 0.250
Размер потока : 8,46 Гбайт (86%)
Заголовок : Godzilla.King.of.the.Monsters.2019.N.B.WEBRip.1080p.Rus_Ukr_Eng
Язык : Russian
Default : Да
Forced : Нет
Цветовой диапазон : Limited
Основные цвета : BT.709
Характеристики трансфера : BT.709
Коэффициенты матрицы : BT.709
Аудио #1
Идентификатор : 7
Формат : AAC LC
Формат/Информация : Advanced Audio Codec Low Complexity
Идентификатор кодека : A_AAC-2
Продолжительность : 2 ч. 11 м.
Битрейт : 448 Кбит/сек
Каналы : 6 каналов
ChannelLayout : C L R Ls Rs LFE
Частота : 48,0 КГц
Частота кадров : 46,875 кадров/сек (1024 SPF)
Метод сжатия : С потерями
Размер потока : 422 Мбайт (4%)
Заголовок : DUB-Rus- iTunes@DD5.1 AAC, 448 Kbps, 48.0 KHz, 6 ch
Язык : Russian
Default : Да
Forced : Нет
Аудио #2
Идентификатор : 8
Формат : AAC LC
Формат/Информация : Advanced Audio Codec Low Complexity
Идентификатор кодека : A_AAC-2
Продолжительность : 2 ч. 11 м.
Битрейт : 282 Кбит/сек
Каналы : 6 каналов
ChannelLayout : C L R Ls Rs LFE
Частота : 48,0 КГц
Частота кадров : 46,875 кадров/сек (1024 SPF)
Метод сжатия : С потерями
Размер потока : 266 Мбайт (3%)
Заголовок : MVO HDRezka Studio @DD5.1 AAC, 282 Kbps, 48.0 KHz, 6 ch
Язык : Russian
Default : Нет
Forced : Нет
Аудио #3
Идентификатор : 9
Формат : AAC LC
Формат/Информация : Advanced Audio Codec Low Complexity
Идентификатор кодека : A_AAC-2
Продолжительность : 2 ч. 11 м.
Битрейт : 271 Кбит/сек
Каналы : 6 каналов
ChannelLayout : C L R Ls Rs LFE
Частота : 48,0 КГц
Частота кадров : 46,875 кадров/сек (1024 SPF)
Метод сжатия : С потерями
Размер потока : 256 Мбайт (3%)
Заголовок : DUB Ukr-iTunes @DD5.1 AAC, 271 Kbps, 48.0 KHz, 6 ch
Язык : Ukrainian
Default : Нет
Forced : Нет
Аудио #4
Идентификатор : 10
Формат : AAC LC
Формат/Информация : Advanced Audio Codec Low Complexity
Идентификатор кодека : A_AAC-2
Продолжительность : 2 ч. 11 м.
Битрейт : 462 Кбит/сек
Каналы : 6 каналов
ChannelLayout : C L R Ls Rs LFE
Частота : 48,0 КГц
Частота кадров : 46,875 кадров/сек (1024 SPF)
Метод сжатия : С потерями
Размер потока : 435 Мбайт (4%)
Заголовок : Original@DD5.1 AАС ,462 Kbps, 48.0 KHz, 6 ch
Язык : English
Default : Нет
Forced : Нет
Текст #1
Идентификатор : 2
Формат : UTF-8
Идентификатор кодека : S_TEXT/UTF8
Идентификатор кодека/Информация : UTF-8 Plain Text
Продолжительность : 2 ч. 8 м.
Битрейт : 1 бит/сек
ElementCount : 24
Размер потока : 1,42 Кбайт (0%)
Заголовок : Russian-Forced
Язык : Russian
Default : Да
Forced : Нет
Текст #2
Идентификатор : 3
Формат : UTF-8
Идентификатор кодека : S_TEXT/UTF8
Идентификатор кодека/Информация : UTF-8 Plain Text
Продолжительность : 2 ч. 10 м.
Битрейт : 77 бит/сек
ElementCount : 1372
Размер потока : 74,2 Кбайт (0%)
Заголовок : Russian
Язык : Russian
Default : Нет
Forced : Нет
Текст #3
Идентификатор : 4
Формат : UTF-8
Идентификатор кодека : S_TEXT/UTF8
Идентификатор кодека/Информация : UTF-8 Plain Text
Продолжительность : 2 ч. 10 м.
Битрейт : 5 бит/сек
ElementCount : 74
Размер потока : 4,93 Кбайт (0%)
Заголовок : Ukr-Forced
Язык : Ukrainian
Default : Нет
Forced : Нет
Текст #4
Идентификатор : 5
Формат : UTF-8
Идентификатор кодека : S_TEXT/UTF8
Идентификатор кодека/Информация : UTF-8 Plain Text
Продолжительность : 2 ч. 11 м.
Битрейт : 51 бит/сек
ElementCount : 1857
Размер потока : 49,7 Кбайт (0%)
Заголовок : Original - SDH
Язык : English
Default : Нет
Forced : Нет
Текст #5
Идентификатор : 6
Формат : UTF-8
Идентификатор кодека : S_TEXT/UTF8
Идентификатор кодека/Информация : UTF-8 Plain Text
Продолжительность : 2 ч. 10 м.
Битрейт : 42 бит/сек
ElementCount : 1482
Размер потока : 40,9 Кбайт (0%)
Заголовок : Original
Язык : English
Default : Нет
Forced : Нет
Меню
00:00:00.000 : en:1
00:10:50.000 : en:2
00:18:02.000 : en:3
00:30:22.000 : en:4
00:45:12.000 : en:5
00:54:04.000 : en:6
01:05:34.000 : en:7
01:09:24.000 : en:8
01:19:23.000 : en:9
01:29:57.000 : en:10
01:38:27.000 : en:11
01:49:49.000 : en:12
01:59:18.000 : en:13
--

Скриншоты

-- -- -- --Релиз от: Nikolai.Baranov & PIRATIYA . Поблагодарить:
ЯД: 410017546713876
-- -- -- --Время раздачи : 24/7---

_________________

Легко быть оптимистом, когда судьба не валит с ног тяжелыми ударами, а лишь иногда легонько шлепает по заднице.
[Торрент-статистика]
[Профиль]  [ЛС] 
Показать сообщения:    
Ответить на тему

Текущее время: Сегодня 03:44

Часовой пояс: GMT + 4



Вы не можете начинать темы
Вы не можете отвечать на сообщения
Вы не можете редактировать свои сообщения
Вы не можете удалять свои сообщения
Вы не можете голосовать в опросах
Вы не можете прикреплять файлы к сообщениям
Вы не можете скачивать файлы