Гори, гори ясно / Brightburn ( Дэвид Яровески) [2019,Ужасы, фантастика, триллер, драма,WEB-DLRip 1080p] [iTunes+СВ Студия+Ukr+ENG]+[Subs Rus+Ukr+ENG]

Ответить на тему
 
Автор
Сообщение

Враг Нароода ®

Пол:

Стаж: 1 год 11 месяцев

Сообщений: 148

Репутация: 165 [+] [-]

Откуда: Красногорск

Пост 07-Авг-2019 14:18

[Цитировать] 

--Гори, гори ясно / Brightburn -- --Год выпуска: 2019
Выпущено: США , Screen Gems, The H Collective
Жанр:Ужасы, фантастика, триллер, драмая
Продолжительность:01:30:30--Озвучка #1: Дублированный - iTunes - Русский
Озвучка #2: Профессиональный многоголосый - СВ Студия - Русский
Озвучка #3: Дублированный - iTunes - Украинский
Озвучка #4: Профессиональный многоголосый -Английский - Оригинал
Субтитры: ]Russian , Украинские,English, English SDH
--Релиз Без Рекламы --MDB 6.3 --Режиссеры:
Дэвид Яровески--В ролях: Элизабет Бэнкс, Джексон А. Данн, Дэвид Денман, Дженнифер Холлэнд, Мэтт Джонс, Мередит Хагнер, Бекки Уолстром, Грегори Алан Уильямс, Стив Эйджи, Эмми Хантер-- Семейная пара фермеров Тори и Кайл уже долго и безуспешно пытаются завести ребёнка, когда вдруг из космоса в близлежащий лес падает капсула с младенцем. Пара усыновляет малыша и растит его как своего собственного сына. Брэндон растёт послушным, хорошо учится в школе и никогда не болеет. Но по достижении 12 лет характер мальчика резко меняется — он начинает дерзить родителям, и в нём просыпаются незнакомые доселе желания и способности.-- --Качество :WEB-DLRip 1080p
Формат: MKV
Видео кодек: H264
Видео: 6278Кбит/сек,1920х800(2.40.1),в 29.970кадр/сек,AVC (High@L4)(CABAC/4 Ref Frames)--Аудио Кодек:AAC
Аудио #1: AАC , iTunes@DD5.1 AАC , 258 Kbps, 48.0 KHz, 6 ch -Русский
Аудио #2: AАC , СВ Студия @DD5.1 AАC , 249 Kbps, 48.0 KHz, 6 ch -Русский
Аудио #3: AАC , iTunes@DD5.1 AАC , 384 Kbps, 48.0 KHz, 6 ch -Украинский
Аудио #4: AАC , Original @DD5.1 AАC , 469 Kbps, 48.0 KHz, 6 ch - Оригинал--

Доп. информация:

Звуковая дорожка сделана путем наложения чистого голоса озвучивателей на центральный канал оригинальной дорожки. Качество идентично звуковой дорожке.
--

MediaInfo

Общее
Уникальный идентификатор : 165219844776950249337970223308938252169 (0x7C4C2F44FAC1DB7AAB896E861C558F89)
Полное имя : C:\Users\Russian Patriot\Downloads\Гори, гори ясно - Brightburn\Brightburn_2019_Н264_DD5.1_N.B_HD_1080_2хRus_Ukr_Eng\Brightburn_2019_Н264_DD5.1_N.B_HD_1080_2хRus_Ukr_Eng.mkv
Формат : Matroska
Версия формата : Version 4
Размер файла : 4,83 Гбайт
Продолжительность : 1 ч. 30 м.
Общий поток : 7641 Кбит/сек
Название фильма : Brightburn 2019 @ Nikolai.Baranov & PIRATIYA
Дата кодирования : UTC 2019-08-07 08:52:02
Программа кодирования : mkvmerge v35.0.0 ('All The Love In The World') 64-bit
Библиотека кодирования : libebml v1.3.9 + libmatroska v1.5.2
Видео
Идентификатор : 1
Формат : AVC
Формат/Информация : Advanced Video Codec
Профиль формата : High@L4
Настройки формата : CABAC / 4 Ref Frames
Параметр CABAC формата : Да
Параметр RefFrames формата : 4 кадра
Параметр GOP формата : M=4, N=48
Идентификатор кодека : V_MPEG4/ISO/AVC
Продолжительность : 1 ч. 30 м.
Вид битрейта : Постоянный
Битрейт : 6278 Кбит/сек
Номинальный битрейт : 10000 Кбит/сек
Ширина : 1920 пикселей
Высота : 800 пикселей
Соотношение сторон : 2,40:1
Режим частоты кадров : Постоянный
Частота кадров : 23,976 (24000/1001) кадра/сек
Цветовое пространство : YUV
Субдискретизация насыщенности : 4:2:0
Битовая глубина : 8 бит
Тип развёртки : Прогрессивная
Бит/(Пиксели*Кадры) : 0.170
Размер потока : 3,97 Гбайт (82%)
Заголовок : Brightburn_2019_Н264_DD5.1_N.B_HD_1080_2хRus_Ukr_Eng
Язык : Russian
Default : Да
Forced : Нет
Цветовой диапазон : Limited
Основные цвета : BT.709
Характеристики трансфера : BT.709
Коэффициенты матрицы : BT.709
Аудио #1
Идентификатор : 8
Формат : AAC LC
Формат/Информация : Advanced Audio Codec Low Complexity
Идентификатор кодека : A_AAC-2
Продолжительность : 1 ч. 30 м.
Битрейт : 258 Кбит/сек
Каналы : 6 каналов
ChannelLayout : C L R Ls Rs LFE
Частота : 48,0 КГц
Частота кадров : 46,875 кадров/сек (1024 SPF)
Метод сжатия : С потерями
Размер потока : 167 Мбайт (3%)
Заголовок : DUB-Rus-iTunes@DD5.1 AАC , 258 Kbps, 48.0 KHz, 6 ch
Язык : Russian
Default : Да
Forced : Нет
Аудио #2
Идентификатор : 9
Формат : AAC LC
Формат/Информация : Advanced Audio Codec Low Complexity
Идентификатор кодека : A_AAC-2
Продолжительность : 1 ч. 30 м.
Битрейт : 249 Кбит/сек
Каналы : 6 каналов
ChannelLayout : C L R Ls Rs LFE
Частота : 48,0 КГц
Частота кадров : 46,875 кадров/сек (1024 SPF)
Метод сжатия : С потерями
Размер потока : 161 Мбайт (3%)
Заголовок : MVO СВ Студия @DD5.1 AАC , 249 Kbps, 48.0 KHz, 6 ch
Язык : Russian
Default : Нет
Forced : Нет
Аудио #3
Идентификатор : 10
Формат : AAC LC
Формат/Информация : Advanced Audio Codec Low Complexity
Идентификатор кодека : A_AAC-2
Продолжительность : 1 ч. 30 м.
Битрейт : 384 Кбит/сек
Каналы : 6 каналов
ChannelLayout : C L R Ls Rs LFE
Частота : 48,0 КГц
Частота кадров : 46,875 кадров/сек (1024 SPF)
Метод сжатия : С потерями
Размер потока : 247 Мбайт (5%)
Заголовок : DUB-Ukr- iTunes@DD5.1 AАC , 384 Kbps, 48.0 KHz, 6 ch
Язык : Ukrainian
Default : Нет
Forced : Нет
Аудио #4
Идентификатор : 11
Формат : AAC LC
Формат/Информация : Advanced Audio Codec Low Complexity
Идентификатор кодека : A_AAC-2
Продолжительность : 1 ч. 30 м.
Битрейт : 469 Кбит/сек
Каналы : 6 каналов
ChannelLayout : C L R Ls Rs LFE
Частота : 48,0 КГц
Частота кадров : 46,875 кадров/сек (1024 SPF)
Метод сжатия : С потерями
Размер потока : 304 Мбайт (6%)
Заголовок : Original @DD5.1 AАC , 469 Kbps, 48.0 KHz, 6 ch
Язык : English
Default : Нет
Forced : Нет
Текст #1
Идентификатор : 2
Формат : UTF-8
Идентификатор кодека : S_TEXT/UTF8
Идентификатор кодека/Информация : UTF-8 Plain Text
Продолжительность : 1 ч. 29 м.
Битрейт : 0 бит/сек
ElementCount : 10
Размер потока : 553 байт (0%)
Заголовок : Forced
Язык : Russian
Default : Да
Forced : Нет
Текст #2
Идентификатор : 3
Формат : UTF-8
Идентификатор кодека : S_TEXT/UTF8
Идентификатор кодека/Информация : UTF-8 Plain Text
Продолжительность : 1 ч. 29 м.
Битрейт : 60 бит/сек
ElementCount : 894
Размер потока : 39,7 Кбайт (0%)
Заголовок : Full
Язык : Russian
Default : Нет
Forced : Нет
Текст #3
Идентификатор : 4
Формат : UTF-8
Идентификатор кодека : S_TEXT/UTF8
Идентификатор кодека/Информация : UTF-8 Plain Text
Продолжительность : 1 ч. 23 м.
Битрейт : 0 бит/сек
ElementCount : 8
Размер потока : 531 байт (0%)
Заголовок : Forced
Язык : Ukrainian
Default : Нет
Forced : Нет
Текст #4
Идентификатор : 5
Формат : UTF-8
Идентификатор кодека : S_TEXT/UTF8
Идентификатор кодека/Информация : UTF-8 Plain Text
Продолжительность : 1 ч. 24 м.
Битрейт : 61 бит/сек
ElementCount : 892
Размер потока : 38,3 Кбайт (0%)
Заголовок : Full
Язык : Ukrainian
Default : Нет
Forced : Нет
Текст #5
Идентификатор : 6
Формат : UTF-8
Идентификатор кодека : S_TEXT/UTF8
Идентификатор кодека/Информация : UTF-8 Plain Text
Продолжительность : 1 ч. 27 м.
Битрейт : 42 бит/сек
ElementCount : 1035
Размер потока : 27,3 Кбайт (0%)
Заголовок : Full
Язык : English
Default : Нет
Forced : Нет
Текст #6
Идентификатор : 7
Формат : UTF-8
Идентификатор кодека : S_TEXT/UTF8
Идентификатор кодека/Информация : UTF-8 Plain Text
Продолжительность : 1 ч. 29 м.
Битрейт : 50 бит/сек
ElementCount : 1351
Размер потока : 33,3 Кбайт (0%)
Заголовок : SDH
Язык : English
Default : Нет
Forced : Нет
Меню
00:00:00.000 : en:1
00:03:20.700 : en:2
00:07:04.631 : en:3
00:12:30.790 : en:4
00:17:47.064 : en:5
00:24:23.168 : en:6
00:30:28.908 : en:7
00:38:06.782 : en:8
00:43:11.669 : en:9
00:49:25.792 : en:10
00:56:53.531 : en:11
01:00:12.353 : en:12
01:05:22.121 : en:13
01:08:16.086 : en:14
01:12:20.579 : en:15
01:17:28.887 : en:16
--

Скриншоты

-- -- -- --Релиз от: Nikolai.Baranov & PIRATIYA . Поблагодарить:
ЯД: 410017546713876
-- -- -- --Время раздачи : 24/7---

_________________

Легко быть оптимистом, когда судьба не валит с ног тяжелыми ударами, а лишь иногда легонько шлепает по заднице.
[Торрент-статистика]
[Профиль]  [ЛС] 
Показать сообщения:    
Ответить на тему

Текущее время: Сегодня 09:57

Часовой пояс: GMT + 4



Вы не можете начинать темы
Вы не можете отвечать на сообщения
Вы не можете редактировать свои сообщения
Вы не можете удалять свои сообщения
Вы не можете голосовать в опросах
Вы не можете прикреплять файлы к сообщениям
Вы не можете скачивать файлы