Мстители: Финал / Avengers: Endgame ( Энтони Руссо, Джо Руссо) [2019, Фантастика, фэнтези, боевик, приключения,BDRip 1080p] [ iTunes+HDRezka+Ukr+ENG]+[Subs Rus , ENG]

Ответить на тему
 
Автор
Сообщение

Враг Нароода ®

Пол:

Стаж: 1 год 11 месяцев

Сообщений: 148

Репутация: 165 [+] [-]

Откуда: Красногорск

Пост 03-Авг-2019 19:23

[Цитировать] 

--Мстители: Финал / Avengers: Endgame -- --Год выпуска: 2019
Выпущено: США , Marvel Studios
Жанр: Фантастика, фэнтези, боевик, приключения
Продолжительность: 03:01:11---Озвучка #1: Дублированный - iTunes - Русский
Озвучка #2: Профессиональный многоголосый - HDRezka Studio - Русский
Озвучка #3: Дублированный - Line - Украинский
Озвучка #4: Профессиональный многоголосый -Английский - Оригинал
Озвучка #5: Профессиональный многоголосый -Английский - Оригинал
Субтитры: Russian , English, English SDH
--Релиз Без Рекламы --MDB 8.7 --Режиссеры:
Энтони Руссо, Джо Руссо--В ролях: : Роберт Дауни мл., Крис Эванс, Марк Руффало, Крис Хемсворт, Скарлетт Йоханссон, Джереми Реннер, Дон Чидл, Пол Радд, Бри Ларсон, Карен Гиллан-- Оставшиеся в живых члены команды Мстителей и их союзники должны разработать новый план, который поможет противостоять разрушительным действиям могущественного титана Таноса. После наиболее масштабной и трагической битвы в истории они не могут допустить ошибку.-- --Качество : BDRip 1080p - HEVC 10bit - 1080p
Формат: MKV
Видео кодек: H265
Видео: 6955Кбит/сек,1920х800(2.40.1),в 23.976кадр/сек, HEVC (Main10@L4.1@Main)--Аудио Кодек:AC3 - DTS
Аудио #1:AC3 384 Kbps, 48.0 KHz, 6 ch-Дублированный - iTunes-Русский
Аудио #2:AC3 384 Kbps, 48.0 KHz, 6 ch- многоголосый закадровый HDRezka Studio -Русский
Аудио #3:AC3 384 Kbps, 48.0 KHz, 6 ch-Дублированный - Lines-Украинский
Аудио #4: AC3, 640 Kbps, 48.0 KHz,6 ch - - English - Оригинал
Аудио #5: 3968 -DTS @ 48.0 KHz, 6 ch - - English - Оригинал--

Доп. информация:

Звуковая дорожка сделана путем наложения чистого голоса озвучивателей на центральный канал оригинальной дорожки. Качество идентично звуковой дорожке.
--

MediaInfo

Общее
Уникальный идентификатор : 2289419295708168275144465599368733166 (0x1B8ED160C769A9512327DBAC20F21EE)
Полное имя : C:\Users\Russian Patriot\Downloads\Мстители Финал - Avengers Endgame\Avengers_Endgame_2019_HEVC- 10Bit_Н265_DD5.1_N.B_BDRip_1080_2xRus_Ukr_Eng\Avengers_Endgame_2019_HEVC- 10Bit_Н265_DD5.1_N.B_BDRip_1080_2xRus_Ukr_Eng.mkv
Формат : Matroska
Версия формата : Version 4
Размер файла : 16,1 Гбайт
Продолжительность : 3 ч. 1 м.
Общий поток : 12,7 Мбит/сек
Название фильма : Avengers Endgame 2019 @ Nikolai.Baranov & PIRATIYA
Дата кодирования : UTC 2019-08-03 11:06:32
Программа кодирования : mkvmerge v35.0.0 ('All The Love In The World') 64-bit
Библиотека кодирования : libebml v1.3.9 + libmatroska v1.5.2
Видео
Идентификатор : 1
Формат : HEVC
Формат/Информация : High Efficiency Video Coding
Профиль формата : Main 10@L4.1@High
Идентификатор кодека : V_MPEGH/ISO/HEVC
Продолжительность : 3 ч. 1 м.
Битрейт : 6955 Кбит/сек
Ширина : 1920 пикселей
Высота : 800 пикселей
Соотношение сторон : 2,40:1
Режим частоты кадров : Постоянный
Частота кадров : 23,976 (24000/1001) кадра/сек
Цветовое пространство : YUV
Субдискретизация насыщенности : 4:2:0
Битовая глубина : 10 бит
Бит/(Пиксели*Кадры) : 0.189
Размер потока : 8,80 Гбайт (55%)
Заголовок : Avengers_Endgame_2019_HEVC- 10Bit_Н265_DD5.1_N.B_BDRip_1080_2xRus_Ukr_Eng
Язык : Russian
Default : Да
Forced : Нет
Цветовой диапазон : Limited
Основные цвета : BT.709
Характеристики трансфера : BT.709
Коэффициенты матрицы : BT.709
Аудио #1
Идентификатор : 9
Формат : AC-3
Формат/Информация : Audio Coding 3
Коммерческое название : Dolby Digital
Идентификатор кодека : A_AC3
Продолжительность : 3 ч. 1 м.
Вид битрейта : Постоянный
Битрейт : 384 Кбит/сек
Каналы : 6 каналов
ChannelLayout : L R C LFE Ls Rs
Частота : 48,0 КГц
Частота кадров : 31,250 кадров/сек (1536 SPF)
Битовая глубина : 16 бит
Метод сжатия : С потерями
Размер потока : 499 Мбайт (3%)
Заголовок : DUB iTunes@DD5.1 AC3, 384 Kbps, 48.0 KHz, 6 ch
Язык : Russian
ServiceKind/String : Complete Main
Default : Да
Forced : Нет
Аудио #2
Идентификатор : 10
Формат : AC-3
Формат/Информация : Audio Coding 3
Коммерческое название : Dolby Digital
Идентификатор кодека : A_AC3
Продолжительность : 3 ч. 1 м.
Вид битрейта : Постоянный
Битрейт : 384 Кбит/сек
Каналы : 6 каналов
ChannelLayout : L R C LFE Ls Rs
Частота : 48,0 КГц
Частота кадров : 31,250 кадров/сек (1536 SPF)
Битовая глубина : 16 бит
Метод сжатия : С потерями
Размер потока : 499 Мбайт (3%)
Заголовок : MVO HDRezka Studio @DD5.1 AC3, 384 Kbps, 48.0 KHz, 6 ch
Язык : Russian
ServiceKind/String : Complete Main
Default : Нет
Forced : Нет
Аудио #3
Идентификатор : 11
Формат : AC-3
Формат/Информация : Audio Coding 3
Коммерческое название : Dolby Digital
Идентификатор кодека : A_AC3
Продолжительность : 3 ч. 1 м.
Вид битрейта : Постоянный
Битрейт : 640 Кбит/сек
Каналы : 6 каналов
ChannelLayout : L R C LFE Ls Rs
Частота : 48,0 КГц
Частота кадров : 31,250 кадров/сек (1536 SPF)
Битовая глубина : 16 бит
Метод сжатия : С потерями
Размер потока : 829 Мбайт (5%)
Заголовок : Original@DD5.1 AC3 ,640 Kbps, 48.0 KHz, 6 ch
Язык : English
ServiceKind/String : Complete Main
Default : Нет
Forced : Нет
Аудио #4
Идентификатор : 12
Формат : AC-3
Формат/Информация : Audio Coding 3
Коммерческое название : Dolby Digital
Идентификатор кодека : A_AC3
Продолжительность : 3 ч. 1 м.
Вид битрейта : Постоянный
Битрейт : 384 Кбит/сек
Каналы : 6 каналов
ChannelLayout : L R C LFE Ls Rs
Частота : 48,0 КГц
Частота кадров : 31,250 кадров/сек (1536 SPF)
Битовая глубина : 16 бит
Метод сжатия : С потерями
Размер потока : 498 Мбайт (3%)
Заголовок : DUB Ukr-Line @DD5.1 AC3, 384 Kbps, 48.0 KHz, 6 ch
Язык : Ukrainian
ServiceKind/String : Complete Main
Default : Нет
Forced : Нет
Аудио #5
Идентификатор : 13
Формат : DTS
Формат/Информация : Digital Theater Systems
Идентификатор кодека : A_DTS
Продолжительность : 3 ч. 1 м.
Вид битрейта : Постоянный
Битрейт : 3968 Кбит/сек
Каналы : 6 каналов
ChannelLayout : C L R Ls Rs LFE
Частота : 48,0 КГц
Частота кадров : 46,875 кадров/сек (1024 SPF)
Битовая глубина : 16 бит
Метод сжатия : С потерями
Размер потока : 5,02 Гбайт (31%)
Заголовок : Original@DTS 3968 Kbps, 48.0 KHz, 6 ch
Язык : English
Default : Нет
Forced : Нет
Текст #1
Идентификатор : 2
Формат : UTF-8
Идентификатор кодека : S_TEXT/UTF8
Идентификатор кодека/Информация : UTF-8 Plain Text
Продолжительность : 2 ч. 17 м.
Битрейт : 1 бит/сек
ElementCount : 34
Размер потока : 1,14 Кбайт (0%)
Заголовок : Rus-Forced (iTunes)
Язык : Russian
Default : Да
Forced : Нет
Текст #2
Идентификатор : 3
Формат : UTF-8
Идентификатор кодека : S_TEXT/UTF8
Идентификатор кодека/Информация : UTF-8 Plain Text
Продолжительность : 3 ч. 0 м.
Битрейт : 78 бит/сек
ElementCount : 2627
Размер потока : 104 Кбайт (0%)
Заголовок : Rus-SDH (iTunes)
Язык : Russian
Default : Нет
Forced : Нет
Текст #3
Идентификатор : 4
Формат : UTF-8
Идентификатор кодека : S_TEXT/UTF8
Идентификатор кодека/Информация : UTF-8 Plain Text
Продолжительность : 2 ч. 29 м.
Битрейт : 1 бит/сек
ElementCount : 39
Размер потока : 1,77 Кбайт (0%)
Заголовок : Rus-Forced (Enigma)
Язык : Russian
Default : Нет
Forced : Нет
Текст #4
Идентификатор : 5
Формат : UTF-8
Идентификатор кодека : S_TEXT/UTF8
Идентификатор кодека/Информация : UTF-8 Plain Text
Продолжительность : 2 ч. 49 м.
Битрейт : 80 бит/сек
ElementCount : 2222
Размер потока : 100 Кбайт (0%)
Заголовок : Rus-Full (Ruf)
Язык : Russian
Default : Нет
Forced : Нет
Текст #5
Идентификатор : 6
Формат : UTF-8
Идентификатор кодека : S_TEXT/UTF8
Идентификатор кодека/Информация : UTF-8 Plain Text
Продолжительность : 3 ч. 0 м.
Битрейт : 51 бит/сек
ElementCount : 2630
Размер потока : 68,3 Кбайт (0%)
Заголовок : Original - SDH
Язык : English
Default : Нет
Forced : Нет
Текст #6
Идентификатор : 7
Формат : UTF-8
Идентификатор кодека : S_TEXT/UTF8
Идентификатор кодека/Информация : UTF-8 Plain Text
Продолжительность : 2 ч. 47 м.
Битрейт : 49 бит/сек
ElementCount : 2329
Размер потока : 61,1 Кбайт (0%)
Заголовок : Original -Full
Язык : English
Default : Нет
Forced : Нет
Текст #7
Идентификатор : 8
Формат : UTF-8
Идентификатор кодека : S_TEXT/UTF8
Идентификатор кодека/Информация : UTF-8 Plain Text
Продолжительность : 3 ч. 0 м.
Битрейт : 65 бит/сек
ElementCount : 2630
Размер потока : 86,9 Кбайт (0%)
Заголовок : Original - SDH-Colored
Язык : English
Default : Нет
Forced : Нет
Меню
00:00:00.000 : en:One Last Surprise / :Глава 01
00:08:05.902 : en:"To The Garden"
00:20:01.700 : en:Five Years Later
00:26:15.282 : en:"A Time Heist"
00:36:57.173 : en:"Time Travel Do-Over"
00:43:20.598 : en:"I Fiexed It"
00:48:44.171 : en:Assembling the Avengers
00:57:36.745 : en:"Get The Stones, Get Them Back"
01:07:12.612 : en:Rogue Transmission
01:16:02.516 : en:New York, 2012
01:26:25.430 : en:Asgard, 2013
01:32:20.118 : en:Morag, 2014
01:38:55.805 : en:New Jersey, 1970
01:48:12.361 : en:Vormir, 2014
01:57:26.915 : en:"I Was Made For This"
02:05:00.243 : en:Thanos' Return
02:15:06.432 : en:Avengers Assemble
02:25:50.450 : en:One of The 14,000,605
02:34:37.935 : en:"Part of The Journey Is The End"
02:43:03.899 : en:"Clip All the Branches"
02:49:05.344 : en:End Credits
--

Скриншоты

-- -- -- --Релиз от: Nikolai.Baranov & PIRATIYA . Поблагодарить:
ЯД: 410017546713876
-- -- -- --Время раздачи : 24/7---

_________________

Легко быть оптимистом, когда судьба не валит с ног тяжелыми ударами, а лишь иногда легонько шлепает по заднице.
[Торрент-статистика]
[Профиль]  [ЛС] 
Показать сообщения:    
Ответить на тему

Текущее время: Сегодня 09:58

Часовой пояс: GMT + 4



Вы не можете начинать темы
Вы не можете отвечать на сообщения
Вы не можете редактировать свои сообщения
Вы не можете удалять свои сообщения
Вы не можете голосовать в опросах
Вы не можете прикреплять файлы к сообщениям
Вы не можете скачивать файлы