Криптон / Krypton (Сезон 2 , Серия 1-10 из 10) ( Киаран Доннелли) [2019, Фантастика, боевик, драма, приключения,WEB-DLRip 1080p] [LostFilm +TVShows+ENG]+[Subs Rus , ENG]

Ответить на тему
 
Автор
Сообщение

Враг Нароода ®

Пол:

Стаж: 1 год 8 месяцев

Сообщений: 124

Репутация: 120 [+] [-]

Откуда: Красногорск

Пост 19-Июн-2019 12:31

[Цитировать] 

-- -- Криптон / Krypton Сезон 2 , Серия 1-10 из 10 - Полный Комплект-- --Год выпуска: 2019
Выпущено: США , DC Entertainment, Phantom Four, Warner Horizon Television
Жанр: Фантастика, боевик, драма, приключения
Продолжительность: 00:43:00
Сезон: 2
Серия:1-10
Количество серий в сезоне:10--Озвучка #1: Профессиональный многоголосый - LostFilm - Русский
Озвучка #2: Профессиональный многоголосый - TVShows - Русский
Озвучка #3: Профессиональный многоголосый -Английский - Оригинал
Субтитры: Russian , English, English SDH
--Релиз Без Рекламы --MDB 7.1 --Режиссеры:
Киаран Доннелли--В ролях: : Кэмерон Каффе, Джорджина Кэмпбелл, Йен МакЭлхинни, Эллиот Кауэн, Энн Огбомо, Расмус Хардайкер, Уоллис Дэй, Аарон Пьер, Гордон Александр-- В центре фантастического сериала — события, происходившие на родной планете мальчика с необычными способностями, который стал Суперменом. Действие разворачивается за несколько десятилетий до гибели планеты. Дед Супермена, всю жизнь веривший в равенство всех жителей планеты Криптон, решает вести непримиримую борьбу с беспорядками и очистить славное имя Элов…-- --Качество :WEB-DLRip 1080p
Формат: MKV
Видео кодек: H264
Видео: 8592Кбит/сек,1920х1080(16.9),в 23.976кадр/сек,AVC (High@L4)(CABAC/4 Ref Frames)--Аудио Кодек:AC3
Аудио #1:AC3 640 Kbps, 48.0 KHz, 6 ch- - LostFilm -Русский
Аудио #2:AC3 384 Kbps, 48.0 KHz, 6 ch-- TVShows -Русский
Аудио #3: AC3, 640 Kbps, 48.0 KHz,6 ch - - English - Оригинал--

Доп. информация:

Звуковая дорожка сделана путем наложения чистого голоса озвучивателей на центральный канал оригинальной дорожки. Качество идентично звуковой дорожке.
--

Список эпизодов сезона


2 сезон 1 серия - В световых годах от дома - Light-Years from Home
2 сезон 2 серия - Призрак в огне - Ghost in the Fire
2 сезон 3 серия - Стремление к власти - Will to Power
2 сезон 4 серия - Опасная близость - Danger Close
2 сезон 5 серия - Лучшее вчера - A Better Yesterday
2 сезон 6 серия - На Зода уповаем - In Zod We Trust
2 сезон 7 серия - Род Зод и монстры - Zods and Monsters
2 сезон 8 серия - Милосердие - Mercy
2 сезон 9 серия - Кровавая луна - Blood Moon
2 сезон 10 серия - Альфа и Омега - The Alpha and the Omega
--

MediaInfo сезона

Общее
Уникальный идентификатор : 28751170297658280122696739155797187191 (0x15A14623A281642442ED69B0D90D9A77)
Полное имя : C:\Users\Russian Patriot\Downloads\Криптон - Krypton\Krypton_2019_S02_Н264_DD5.1_N.B_HD_1080_2Rus_Eng\Krypton_2019_S02E01_Н264_DD5.1_N.B_HD_1080_2Rus_Eng.mkv
Формат : Matroska
Версия формата : Version 4
Размер файла : 3,09 Гбайт
Продолжительность : 42 м. 38 с.
Общий поток : 10,4 Мбит/сек
Название фильма : Krypton 2019 S02E01 @ Nikolai.Baranov & PIRATIYA
Дата кодирования : UTC 2019-06-19 06:31:08
Программа кодирования : mkvmerge v34.0.0 ('Sight and Seen') 64-bit
Библиотека кодирования : libebml v1.3.7 + libmatroska v1.5.0
Видео
Идентификатор : 1
Формат : AVC
Формат/Информация : Advanced Video Codec
Профиль формата : High@L4
Настройки формата : CABAC / 4 Ref Frames
Параметр CABAC формата : Да
Параметр RefFrames формата : 4 кадра
Идентификатор кодека : V_MPEG4/ISO/AVC
Продолжительность : 42 м. 38 с.
Вид битрейта : Постоянный
Битрейт : 8692 Кбит/сек
Номинальный битрейт : 10000 Кбит/сек
Ширина : 1920 пикселей
Высота : 1080 пикселей
Соотношение сторон : 16:9
Режим частоты кадров : Постоянный
Частота кадров : 23,976 (24000/1001) кадра/сек
Цветовое пространство : YUV
Субдискретизация насыщенности : 4:2:0
Битовая глубина : 8 бит
Тип развёртки : Прогрессивная
Бит/(Пиксели*Кадры) : 0.175
Размер потока : 2,59 Гбайт (84%)
Заголовок : Krypton_2019_S02E01_Н264_DD5.1_N.B_HD_1080_2Rus_Eng
Язык : Russian
Default : Да
Forced : Нет
Цветовой диапазон : Limited
Основные цвета : BT.709
Характеристики трансфера : BT.709
Коэффициенты матрицы : BT.709
Аудио #1
Идентификатор : 5
Формат : AC-3
Формат/Информация : Audio Coding 3
Коммерческое название : Dolby Digital
Идентификатор кодека : A_AC3
Продолжительность : 42 м. 38 с.
Вид битрейта : Постоянный
Битрейт : 640 Кбит/сек
Каналы : 6 каналов
ChannelLayout : L R C LFE Ls Rs
Частота : 48,0 КГц
Частота кадров : 31,250 кадров/сек (1536 SPF)
Битовая глубина : 16 бит
Метод сжатия : С потерями
Размер потока : 195 Мбайт (6%)
Заголовок : MVO LostFilm @DD5.1 AC3, 640 Kbps, 48.0 KHz, 6 ch
Язык : Russian
ServiceKind/String : Complete Main
Default : Да
Forced : Нет
Аудио #2
Идентификатор : 6
Формат : AC-3
Формат/Информация : Audio Coding 3
Коммерческое название : Dolby Digital
Идентификатор кодека : A_AC3
Продолжительность : 42 м. 38 с.
Вид битрейта : Постоянный
Битрейт : 384 Кбит/сек
Каналы : 6 каналов
ChannelLayout : L R C LFE Ls Rs
Частота : 48,0 КГц
Частота кадров : 31,250 кадров/сек (1536 SPF)
Битовая глубина : 16 бит
Метод сжатия : С потерями
Размер потока : 117 Мбайт (4%)
Заголовок : MVO TVShows @DD5.1 AC3, 384 Kbps, 48.0 KHz, 6 ch
Язык : Russian
ServiceKind/String : Complete Main
Default : Нет
Forced : Нет
Аудио #3
Идентификатор : 7
Формат : AC-3
Формат/Информация : Audio Coding 3
Коммерческое название : Dolby Digital
Идентификатор кодека : A_AC3
Продолжительность : 42 м. 38 с.
Вид битрейта : Постоянный
Битрейт : 640 Кбит/сек
Каналы : 6 каналов
ChannelLayout : L R C LFE Ls Rs
Частота : 48,0 КГц
Частота кадров : 31,250 кадров/сек (1536 SPF)
Битовая глубина : 16 бит
Метод сжатия : С потерями
Размер потока : 195 Мбайт (6%)
Заголовок : Original@DD5.1 AC3 ,640 Kbps, 48.0 KHz, 6 ch
Язык : English
ServiceKind/String : Complete Main
Default : Нет
Forced : Нет
Текст #1
Идентификатор : 2
Формат : UTF-8
Идентификатор кодека : S_TEXT/UTF8
Идентификатор кодека/Информация : UTF-8 Plain Text
Продолжительность : 41 м. 53 с.
Битрейт : 112 бит/сек
ElementCount : 689
Размер потока : 34,5 Кбайт (0%)
Заголовок : Rus
Язык : Russian
Default : Да
Forced : Нет
Текст #2
Идентификатор : 3
Формат : UTF-8
Идентификатор кодека : S_TEXT/UTF8
Идентификатор кодека/Информация : UTF-8 Plain Text
Продолжительность : 42 м. 12 с.
Битрейт : 74 бит/сек
ElementCount : 827
Размер потока : 23,0 Кбайт (0%)
Заголовок : Original - SDH
Язык : English
Default : Нет
Forced : Нет
Текст #3
Идентификатор : 4
Формат : UTF-8
Идентификатор кодека : S_TEXT/UTF8
Идентификатор кодека/Информация : UTF-8 Plain Text
Продолжительность : 41 м. 52 с.
Битрейт : 69 бит/сек
ElementCount : 694
Размер потока : 21,3 Кбайт (0%)
Заголовок : Original
Язык : English
Default : Нет
Forced : Нет
Меню
00:00:00.000 : :Глава 01 / :Глава 01 / :Глава 01 / :Глава 01 / :Глава 01 / :Глава 01 / :Глава 01
--

Скриншоты

-- --

Как закачать отдельный файл

1. Открыть торрент
2. Снять галки с тех файлов торрента, которые мы не хотим закачивать. Оставляем только на нужных нам файлах (файле).
3. Нажать О.К.
В клиенте utorrent
Инструкция
1) Открыть торрент

2) Снять галки с тех файлов торрента, которые мы не хотим закачивать:
* либо вручную, снимая с каждого файла галку( скрин №1)
* либо, нажав кнопку "Снять метки (Select None)", сняв сразу со всех файлов(скрин №2)
№1

№2

Оставляем только на нужных нам файлах (файле).

3)Нажать О.К
-- -- --Внимание!!! 22.08. 2019. РАЗДАЧА ОБНОВЛЕНА. ДОБАВЛЕНА -10- СЕРИЯ .ФИНАЛ СЕЗОНА. ОБНОВИТЕ ТОРЕНТ ФАЙЛ. ПРИЯТНОГО ПРОСМОТРА . Поблагодарить:
ЯД: 410017546713876
--Релиз от: Nikolai.Baranov & PIRATIYA -- -- -- --Время раздачи : 24/7---

_________________

Легко быть оптимистом, когда судьба не валит с ног тяжелыми ударами, а лишь иногда легонько шлепает по заднице.
[Торрент-статистика]
[Профиль]  [ЛС] 
Показать сообщения:    
Ответить на тему

Текущее время: Сегодня 00:15

Часовой пояс: GMT + 4



Вы не можете начинать темы
Вы не можете отвечать на сообщения
Вы не можете редактировать свои сообщения
Вы не можете удалять свои сообщения
Вы не можете голосовать в опросах
Вы не можете прикреплять файлы к сообщениям
Вы не можете скачивать файлы