Зона заражения (Горячая зона) / The Hot Zone (Сезон 1 , Серия 1-6 из 6) ( Майкл Аппендаль) [2019, Фантастика, триллер, драма,WEB-DLRip 1080p] [LostFilm+ENG]+[Subs ENG]

Ответить на тему
 
Автор
Сообщение

Враг Нароода ®

Пол:

Стаж: 1 год 7 месяцев

Сообщений: 117

Репутация: 108 [+] [-]

Откуда: Красногорск

Пост 08-Июн-2019 18:04

[Цитировать] 

-- -- Зона заражения (Горячая зона) / The Hot Zone Сезон 1 , Серия 1-6 из 6 - Полный Комплект-- --Год выпуска: 2019
Выпущено: США , ABC Signature Studios, ABC Studios, ABC Television Network
Жанр: Фантастика, триллер, драма
Продолжительность: 00:46:00
Сезон: 1
Серия:1-6
Количество серий в сезоне:6--Озвучка #1: Профессиональный многоголосый - LostFilm - Русский
Озвучка #2: Профессиональный многоголосый -Английский - Оригинал
Субтитры: English, English SDH
--Релиз Без Рекламы --MDB --Режиссеры:
Майкл Аппендаль--В ролях: : Лиам Каннингэм, Джеймс Д'Арси, Ноа Эммерих, Тофер Грэйс, Пол Джеймс, Марк Келли, Роберт Шон Леонард, Джулианна Маргулис, Ленни Арройо-Платт, Ник Сирси-- Сюжетная линия "Горячей зоны" поведает рассказ о смертельно опасном вирусе Эбола. Он появился в Вашингтоне из знойных лесов Центральной Африки. Все дело в том, что из этой экзотической страны привезли приматов, которые были заражены опасным вирусом. Выяснилось, что от вируса Эболы нет вакцины и 90% всех заразившихся людей мгновенно погибли. Была введена срочна мера по перекрытию вспышки данного экзотического вируса. Для этого была мобилизована специальная группа.-- --Качество :WEB-DLRip 1080p
Формат: MKV
Видео кодек: H264
Видео: 7208Кбит/сек,1920х960(2.000),в 23.976кадр/сек,AVC (High@L4)(CABAC/4 Ref Frames)--Аудио Кодек:AC3
Аудио #1:AC3, 640 Kbps, 48.0 KHz, 6 ch- Lostfilm -Русский
Аудио #4: AC3, 640 Kbps, 48.0 KHz,6 ch - - English - Оригинал--

Доп. информация:

Звуковая дорожка сделана путем наложения чистого голоса озвучивателей на центральный канал оригинальной дорожки. Качество идентично звуковой дорожке.
--

Список эпизодов сезона


1 сезон 1 серия - Появление - Arrival
1 сезон 2 серия - Блок "H" - Cell H
1 сезон 3 серия - Чарли Фокстрот - Charlie Foxtrot
1 сезон 4 серия - Незаменимых нет - Expendable
1 сезон 5 серия - Карантин - Quarantine
1 сезон 6 серия - Скрытая угроза - Hidden
--

MediaInfo сезона

Общее
Уникальный идентификатор : 317109639256548973206864402840630758902 (0xEE911851406DCFA70A5FF6C9FF3A8DF6)
Полное имя : C:\Users\Russian Patriot\Downloads\Зона заражения - The Hot Zone\The_Hot_Zone_2019_S01_Н264_DD5.1_N.B_HD_1080_LostFilm_Rus_Eng\The_Hot_Zone_2019_S01E01_Н264_DD5.1_N.B_HD_1080_Rus_Eng.mkv
Формат : Matroska
Версия формата : Version 4
Размер файла : 2,74 Гбайт
Продолжительность : 46 м. 12 с.
Общий поток : 8490 Кбит/сек
Название фильма : The Hot Zone 2019 S01E01 @ Nikolai.Baranov & PIRATIYA
Дата кодирования : UTC 2019-06-08 07:37:41
Программа кодирования : mkvmerge v34.0.0 ('Sight and Seen') 64-bit
Библиотека кодирования : libebml v1.3.7 + libmatroska v1.5.0
Видео
Идентификатор : 1
Формат : AVC
Формат/Информация : Advanced Video Codec
Профиль формата : High@L4
Настройки формата : CABAC / 4 Ref Frames
Параметр CABAC формата : Да
Параметр RefFrames формата : 4 кадра
Идентификатор кодека : V_MPEG4/ISO/AVC
Продолжительность : 46 м. 12 с.
Вид битрейта : Постоянный
Битрейт : 7208 Кбит/сек
Номинальный битрейт : 10000 Кбит/сек
Ширина : 1920 пикселей
Высота : 960 пикселей
Соотношение сторон : 2,000
Режим частоты кадров : Постоянный
Частота кадров : 23,976 (24000/1001) кадра/сек
Цветовое пространство : YUV
Субдискретизация насыщенности : 4:2:0
Битовая глубина : 8 бит
Тип развёртки : Прогрессивная
Бит/(Пиксели*Кадры) : 0.163
Размер потока : 2,33 Гбайт (85%)
Заголовок : The_Hot_Zone_2019_S01E01_Н264_DD5.1_N.B_HD_1080_Rus_Eng
Язык : Russian
Default : Да
Forced : Нет
Цветовой диапазон : Limited
Основные цвета : BT.709
Характеристики трансфера : BT.709
Коэффициенты матрицы : BT.709
Аудио #1
Идентификатор : 4
Формат : AC-3
Формат/Информация : Audio Coding 3
Коммерческое название : Dolby Digital
Идентификатор кодека : A_AC3
Продолжительность : 46 м. 10 с.
Вид битрейта : Постоянный
Битрейт : 640 Кбит/сек
Каналы : 6 каналов
ChannelLayout : L R C LFE Ls Rs
Частота : 48,0 КГц
Частота кадров : 31,250 кадров/сек (1536 SPF)
Битовая глубина : 16 бит
Метод сжатия : С потерями
Размер потока : 211 Мбайт (8%)
Заголовок : MVO LostFilm @DD5.1 AC3, 640 Kbps, 48.0 KHz, 6 ch
Язык : Russian
ServiceKind/String : Complete Main
Default : Да
Forced : Нет
Аудио #2
Идентификатор : 5
Формат : AC-3
Формат/Информация : Audio Coding 3
Коммерческое название : Dolby Digital
Идентификатор кодека : A_AC3
Продолжительность : 46 м. 12 с.
Вид битрейта : Постоянный
Битрейт : 640 Кбит/сек
Каналы : 6 каналов
ChannelLayout : L R C LFE Ls Rs
Частота : 48,0 КГц
Частота кадров : 31,250 кадров/сек (1536 SPF)
Битовая глубина : 16 бит
Метод сжатия : С потерями
Размер потока : 212 Мбайт (8%)
Заголовок : Original@DD5.1 AC3 ,640 Kbps, 48.0 KHz, 6 ch
Язык : English
ServiceKind/String : Complete Main
Default : Нет
Forced : Нет
Текст #1
Идентификатор : 2
Формат : UTF-8
Идентификатор кодека : S_TEXT/UTF8
Идентификатор кодека/Информация : UTF-8 Plain Text
Продолжительность : 45 м. 56 с.
Битрейт : 60 бит/сек
ElementCount : 674
Размер потока : 20,4 Кбайт (0%)
Заголовок : Original - SDH
Язык : English
Default : Да
Forced : Нет
Текст #2
Идентификатор : 3
Формат : UTF-8
Идентификатор кодека : S_TEXT/UTF8
Идентификатор кодека/Информация : UTF-8 Plain Text
Продолжительность : 45 м. 38 с.
Битрейт : 61 бит/сек
ElementCount : 665
Размер потока : 20,4 Кбайт (0%)
Заголовок : Original
Язык : English
Default : Нет
Forced : Нет
Меню
00:00:00.000 : :Глава 01 / :Глава 01 / :Глава 01 / :Глава 01 / :Глава 01
--

Скриншоты

-- --

Как закачать отдельный файл

1. Открыть торрент
2. Снять галки с тех файлов торрента, которые мы не хотим закачивать. Оставляем только на нужных нам файлах (файле).
3. Нажать О.К.
В клиенте utorrent
Инструкция
1) Открыть торрент

2) Снять галки с тех файлов торрента, которые мы не хотим закачивать:
* либо вручную, снимая с каждого файла галку( скрин №1)
* либо, нажав кнопку "Снять метки (Select None)", сняв сразу со всех файлов(скрин №2)
№1

№2

Оставляем только на нужных нам файлах (файле).

3)Нажать О.К
-- -- --Внимание!!! 29.06. 2019. РАЗДАЧА ОБНОВЛЕНА. ДОБАВЛЕНА - 6- СЕРИЯ. ОБНОВИТЕ ТОРЕНТ ФАЙЛ. ПРИЯТНОГО ПРОСМОТРА . Поблагодарить:
ЯД: 410017546713876
--Релиз от: Nikolai.Baranov & PIRATIYA -- -- -- --Время раздачи : 24/7---

_________________

Легко быть оптимистом, когда судьба не валит с ног тяжелыми ударами, а лишь иногда легонько шлепает по заднице.
[Торрент-статистика]
[Профиль]  [ЛС] 
Показать сообщения:    
Ответить на тему

Текущее время: Сегодня 22:45

Часовой пояс: GMT + 4



Вы не можете начинать темы
Вы не можете отвечать на сообщения
Вы не можете редактировать свои сообщения
Вы не можете удалять свои сообщения
Вы не можете голосовать в опросах
Вы не можете прикреплять файлы к сообщениям
Вы не можете скачивать файлы