Болотная тварь / Swamp Thing (Сезон 1 , Серия 1-10 из 10) ( Лен Уайзман, Кэрол Бенкер, Тоа Фрейзер) [2019, Ужасы, фантастика, фэнтези, боевик, драма,WEB-DLRip 1080p] [LostFilm+ SDI Media+AlexFilm+ENG]+[Subs Rus , ENG]

Ответить на тему
 
Автор
Сообщение

Враг Нароода ®

Пол:

Стаж: 1 год 7 месяцев

Сообщений: 118

Репутация: 108 [+] [-]

Откуда: Красногорск

Пост 04-Июн-2019 15:24

[Цитировать] 

-- --Болотная тварь / Swamp Thing Сезон 1 , Серия 1-10 из 10 - Полный Комплект-- --Год выпуска: 2019
Выпущено: США , Atomic Monster, DC Universe
Жанр: Ужасы, фантастика, фэнтези, боевик, драма
Продолжительность: 00:59:00
Сезон: 1
Серия:1-10
Количество серий в сезоне:10--Озвучка #1: Профессиональный многоголосый - LostFilm - Русский
Озвучка #2: Дублированный - SDI Media - Русский
Озвучка #3: Профессиональный многоголосый - AlexFilm - Русский
Озвучка #4: Профессиональный многоголосый -Английский - Оригинал
Субтитры: Russian , English, English SDH
--Релиз Без Рекламы - ВНИМАНИЕ! В сериале Ненормативная лексика --MDB 8.3 --Режиссеры:
Лен Уайзман, Кэрол Бенкер, Тоа Фрейзер--В ролях: : Кристал Рид, Энди Бин, Дерек Мирс, Хендерсон Вэйд, Дженнифер Билз, Вирджиния Мэдсен, Уилл Пэттон, Мария Стэн, Селена Андусе, Кевин Дюран-- Микробиолог Эбби Аркейн возвращается в родной город — здесь разбушевался смертельный вирус, который необходимо изучить и нейтрализовать. Она знакомится с коллегой Алеком Холландом, их совместная работа стремительно перерастает в романтические отношения, но на всем этом ставит точку несчастный случай на болоте, в результате которого Алек погибает. Убитая горем Эбби еще не знает, что ее ждет новая встреча с возлюбленным, который теперь превратился в человекообразное растение с супергеройскими способностями.-- --Качество :WEB-DLRip 1080p
Формат: MKV
Видео кодек: H264
Видео: 5880Кбит/сек,1920х1080(16.9),в 23.976кадр/сек,AVC (Baseline@L4)(3 Ref Frames)--Аудио Кодек:AC3
Аудио #1:AC3 384 Kbps, 48.0 KHz, 6 ch- Lostfilm -Русский
Аудио #2:AC3 192 Kbps, 48.0 KHz, 6 ch-- Дублированный-SDI Media -Русский
Аудио #3:AC3 192 Kbps, 48.0 KHz, 6 ch-AlexFilm -Русский
Аудио #4: AC3, 384 Kbps, 48.0 KHz,6 ch - - English - Оригинал--

Доп. информация:

Звуковая дорожка сделана путем наложения чистого голоса озвучивателей на центральный канал оригинальной дорожки. Качество идентично звуковой дорожке.
--

Список эпизодов сезона


1 сезон 1 серия - Пилот - Pilot
1 сезон 2 серия - Разные миры - Worlds Apart
1 сезон 3 серия - Он заговорил - He Speaks
1 сезон 4 серия - Тьма на окраине города - Darkness on the Edge of Town
1 сезон 5 серия - Ехать всю ночь - Drive All Night
1 сезон 6 серия - Путь к успеху - The Price You Pay
1 сезон 7 серия - Блестящая маскировка - Brilliant Disguise
1 сезон 8 серия - Долгий путь домой - Long Walk Home
1 сезон 9 серия - Урок анатомии - The Anatomy Lesson
1 сезон 10 серия - Концы в воду - Loose Ends
--

MediaInfo сезона

Общее
Уникальный идентификатор : 330210843723467284150156700596240576345 (0xF86C4B917EEDC31194D1B7D8681AEF59)
Полное имя : C:\Users\Russian Patriot\Downloads\Болотная тварь - Swamp Thing\Swamp_Thing_2019.S01_Н264_DD5.1_N.B_HD_1080_3xRus_Eng\Swamp_Thing_2019.S01E01_Н264_DD5.1_N.B_HD_1080_3xRus_Eng.mkv
Формат : Matroska
Версия формата : Version 4
Размер файла : 2,93 Гбайт
Продолжительность : 59 м. 43 с.
Общий поток : 7035 Кбит/сек
Название фильма : Swamp Thing 2019 S01E01 @ Nikolai.Baranov & PIRATIYA
Дата кодирования : UTC 2019-06-04 09:00:30
Программа кодирования : mkvmerge v34.0.0 ('Sight and Seen') 64-bit
Библиотека кодирования : libebml v1.3.7 + libmatroska v1.5.0
Видео
Идентификатор : 1
Формат : AVC
Формат/Информация : Advanced Video Codec
Профиль формата : Baseline@L4
Настройки формата : 3 Ref Frames
Параметр CABAC формата : Нет
Параметр RefFrames формата : 3 кадра
Параметр GOP формата : M=1, N=48
Идентификатор кодека : V_MPEG4/ISO/AVC
Продолжительность : 59 м. 43 с.
Битрейт : 5880 Кбит/сек
Ширина : 1920 пикселей
Высота : 1080 пикселей
Соотношение сторон : 16:9
Режим частоты кадров : Постоянный
Частота кадров : 23,976 (24000/1001) кадра/сек
Цветовое пространство : YUV
Субдискретизация насыщенности : 4:2:0
Битовая глубина : 8 бит
Тип развёртки : Прогрессивная
Бит/(Пиксели*Кадры) : 0.118
Размер потока : 2,45 Гбайт (84%)
Заголовок : Swamp_Thing_2019.S01E01_Н264_DD5.1_N.B_HD_1080_3xRus_Eng
Библиотека кодирования : Zencoder Video Encoding System
Язык : Russian
Default : Да
Forced : Нет
Цветовой диапазон : Limited
Основные цвета : BT.709
Характеристики трансфера : BT.709
Коэффициенты матрицы : BT.709
Аудио #1
Идентификатор : 5
Формат : AC-3
Формат/Информация : Audio Coding 3
Коммерческое название : Dolby Digital
Идентификатор кодека : A_AC3
Продолжительность : 59 м. 43 с.
Вид битрейта : Постоянный
Битрейт : 384 Кбит/сек
Каналы : 6 каналов
ChannelLayout : L R C LFE Ls Rs
Частота : 48,0 КГц
Частота кадров : 31,250 кадров/сек (1536 SPF)
Битовая глубина : 16 бит
Метод сжатия : С потерями
Размер потока : 164 Мбайт (5%)
Заголовок : MVO LostFilm @DD5.1 AC3, 384 Kbps, 48.0 KHz, 6 ch
Язык : Russian
ServiceKind/String : Complete Main
Default : Да
Forced : Нет
Аудио #2
Идентификатор : 6
Формат : AC-3
Формат/Информация : Audio Coding 3
Коммерческое название : Dolby Digital
Идентификатор кодека : A_AC3
Продолжительность : 59 м. 43 с.
Вид битрейта : Постоянный
Битрейт : 192 Кбит/сек
Каналы : 6 каналов
ChannelLayout : L R C LFE Ls Rs
Частота : 48,0 КГц
Частота кадров : 31,250 кадров/сек (1536 SPF)
Битовая глубина : 16 бит
Метод сжатия : С потерями
Размер потока : 82,0 Мбайт (3%)
Заголовок : MVO AlexFilm @DD5.1 AC3, 192 Kbps, 48.0 KHz, 6 ch
Язык : Russian
ServiceKind/String : Complete Main
Default : Нет
Forced : Нет
Аудио #3
Идентификатор : 7
Формат : AC-3
Формат/Информация : Audio Coding 3
Коммерческое название : Dolby Digital
Идентификатор кодека : A_AC3
Продолжительность : 59 м. 43 с.
Вид битрейта : Постоянный
Битрейт : 192 Кбит/сек
Каналы : 6 каналов
ChannelLayout : L R C LFE Ls Rs
Частота : 48,0 КГц
Частота кадров : 31,250 кадров/сек (1536 SPF)
Битовая глубина : 16 бит
Метод сжатия : С потерями
Размер потока : 82,0 Мбайт (3%)
Заголовок : MVO SDI Media @DD5.1 AC3, 192 Kbps, 48.0 KHz, 6 ch
Язык : Russian
ServiceKind/String : Complete Main
Default : Нет
Forced : Нет
Аудио #4
Идентификатор : 8
Формат : AC-3
Формат/Информация : Audio Coding 3
Коммерческое название : Dolby Digital
Идентификатор кодека : A_AC3
Продолжительность : 59 м. 43 с.
Вид битрейта : Постоянный
Битрейт : 384 Кбит/сек
Каналы : 6 каналов
ChannelLayout : L R C LFE Ls Rs
Частота : 48,0 КГц
Частота кадров : 31,250 кадров/сек (1536 SPF)
Битовая глубина : 16 бит
Метод сжатия : С потерями
Размер потока : 164 Мбайт (5%)
Заголовок : Original@DD5.1 AC3 ,384 Kbps, 48.0 KHz, 6 ch
Язык : English
ServiceKind/String : Complete Main
Default : Нет
Forced : Нет
Текст #1
Идентификатор : 2
Формат : UTF-8
Идентификатор кодека : S_TEXT/UTF8
Идентификатор кодека/Информация : UTF-8 Plain Text
Продолжительность : 58 м. 7 с.
Битрейт : 73 бит/сек
ElementCount : 688
Размер потока : 31,1 Кбайт (0%)
Заголовок : Rus
Язык : Russian
Default : Да
Forced : Нет
Текст #2
Идентификатор : 3
Формат : UTF-8
Идентификатор кодека : S_TEXT/UTF8
Идентификатор кодека/Информация : UTF-8 Plain Text
Продолжительность : 58 м. 58 с.
Битрейт : 53 бит/сек
ElementCount : 860
Размер потока : 22,9 Кбайт (0%)
Заголовок : Original - SDH
Язык : English
Default : Нет
Forced : Нет
Текст #3
Идентификатор : 4
Формат : UTF-8
Идентификатор кодека : S_TEXT/UTF8
Идентификатор кодека/Информация : UTF-8 Plain Text
Продолжительность : 58 м. 56 с.
Битрейт : 45 бит/сек
ElementCount : 706
Размер потока : 19,6 Кбайт (0%)
Заголовок : Original
Язык : English
Default : Нет
Forced : Нет
Меню
00:00:00.000 : :Глава 01 / :Глава 01 / :Глава 01 / :Глава 01 / :Глава 01 / :Глава 01 / :Глава 01 / :Глава 01
--

Скриншоты

-- --

Как закачать отдельный файл

1. Открыть торрент
2. Снять галки с тех файлов торрента, которые мы не хотим закачивать. Оставляем только на нужных нам файлах (файле).
3. Нажать О.К.
В клиенте utorrent
Инструкция
1) Открыть торрент

2) Снять галки с тех файлов торрента, которые мы не хотим закачивать:
* либо вручную, снимая с каждого файла галку( скрин №1)
* либо, нажав кнопку "Снять метки (Select None)", сняв сразу со всех файлов(скрин №2)
№1

№2

Оставляем только на нужных нам файлах (файле).

3)Нажать О.К
-- -- --Внимание!!! 06.08. 2019. РАЗДАЧА ОБНОВЛЕНА. ДОБАВЛЕНА - 10-9- СЕРИЯ. Финал Сезона. ОБНОВИТЕ ТОРЕНТ ФАЙЛ. ПРИЯТНОГО ПРОСМОТРА . Поблагодарить:
ЯД: 410017546713876
--Релиз от: Nikolai.Baranov & PIRATIYA -- -- -- --Время раздачи : 24/7---

_________________

Легко быть оптимистом, когда судьба не валит с ног тяжелыми ударами, а лишь иногда легонько шлепает по заднице.
[Торрент-статистика]
[Профиль]  [ЛС] 
Показать сообщения:    
Ответить на тему

Текущее время: Сегодня 18:02

Часовой пояс: GMT + 4



Вы не можете начинать темы
Вы не можете отвечать на сообщения
Вы не можете редактировать свои сообщения
Вы не можете удалять свои сообщения
Вы не можете голосовать в опросах
Вы не можете прикреплять файлы к сообщениям
Вы не можете скачивать файлы