Живая мина / Living mine (Серия 1-10 из 10)(Михаил Кабанов (II)) [2018,Боевик , Детектив , WEB-DLRip-AVC][1080p][DD5.1]

Ответить на тему
 
Автор
Сообщение

Враг Нароода ®

Пол:

Стаж: 1 год 5 месяцев

Сообщений: 100

Репутация: 78 [+] [-]

Откуда: Красногорск

Пост 29-Май-2019 19:45

[Цитировать] 

-- Живая мина / Living mine Серия 1-10 из 10 - Полный Комплект -- --Год выпуска: 2018
Выпущено: Россия , , Россия, IKa film, «Киностудия КИТ»
Жанр:Боевик , Детектив
Продолжительность: 00:47:00
Серия: 1-10
Количество серий в сезоне:10
Озвучка : -Русский --Релиз Без Рекламы --Кинопоиск --Режиссеры:
Михаил Кабанов (II)--В ролях: Антон Васильев, Виктория Корлякова, Петар Зекавица, Александр Карпов (III), Арсений Робак, Мария Свирид, Святослав Астрамович, Виталий Ходин, Арсений Александров, Андрей Гаркунов
-- Владимир Фадеев жил по закону: «Фадеев всегда прав. Кто не прав – тот не Фадеев». Он был профессионалом своего дела. Ему были подвластны самые сложные взрывные устройства. Но однажды его самонадеянность сыграла с ним злую шутку. В Сирии, при разминировании автобуса с мирными жителями, он не учёл запасной взрыватель, и, после его команды «открыть двери», автобус взлетел на воздух. Фадеев навсегда запомнил лицо улыбающейся сирийской девушки из Красного Креста. Посттравматический синдром заставил его комиссоваться. Теперь он – выкинутый на обочину мирной жизни пьяница, подрабатывающий охранником. Но вот в музее, из которого его уволили за распитие спиртных напитков во время дежурства, происходит взрыв. И Фадеев вновь оказывается нужным: только он может понять, как действовал подрывник.…-- --Качество :WEB-DLRip 1080p
Формат: MKV
Видео кодек: H264
Видео: 6059Кбит/сек,1920х1080(16.9),в 25.049кадр/сек,AVC (High@L4)(CABAC/2 Ref Frames)--Аудио Кодек:AC3
Аудио #1:AC3 , 384 Kbps, 48.0 KHz, 6 ch-Русский--

MediaInfo

Общее
Уникальный идентификатор : 179403492708581470705701637514425880172 (0x86F7DB1A86C50E1639CE6C81D1954E6C)
Полное имя : C:\Nikolai.Baranov & PIRATIYA\РЕАЛИЗАЦИЯ - Implementation\Implementation_2018_Н264_DD5.1_N.B_HD_1080_Rus\Implementation_2018_Е01-Е02_Н264_DD5.1_N.B_HD_1080_Rus.mkv
Формат : Matroska
Версия формата : Version 4
Размер файла : 4,43 Гбайт
Продолжительность : 1 ч. 38 м.
Режим общего битрейта : Переменный
Общий поток : 6445 Кбит/сек
Название фильма : Implementation 2018 Е01-Е02 @ Nikolai.Baranov & PIRATIYA
Дата кодирования : UTC 2019-03-12 06:28:05
Программа кодирования : mkvmerge v31.0.0 ('Dolores In A Shoestand') 64-bit
Библиотека кодирования : libebml v1.3.6 + libmatroska v1.4.9
Видео
Идентификатор : 1
Формат : AVC
Формат/Информация : Advanced Video Codec
Профиль формата : High@L4
Настройки формата : CABAC / 2 Ref Frames
Параметр CABAC формата : Да
Параметр RefFrames формата : 2 кадра
Параметр GOP формата : M=2, N=15
Идентификатор кодека : V_MPEG4/ISO/AVC
Продолжительность : 1 ч. 38 м.
Вид битрейта : Переменный
Битрейт : 6059 Кбит/сек
Максимальный битрейт : 16,0 Мбит/сек
Ширина : 1920 пикселей
Высота : 1080 пикселей
Соотношение сторон : 16:9
Режим частоты кадров : Переменный
Частота кадров : 25,049 кадров/сек
Частота кадров в оригинале : 29,970 (30000/1001) кадров/сек
Цветовое пространство : YUV
Субдискретизация насыщенности : 4:2:0
Битовая глубина : 8 бит
Тип развёртки : Прогрессивная
Бит/(Пиксели*Кадры) : 0.117
Размер потока : 4,17 Гбайт (94%)
Заголовок : Implementation_2018_Е01-Е02_Н264_DD5.1_N.B_HD_1080_Rus
Язык : Russian
Default : Нет
Forced : Нет
Аудио
Идентификатор : 2
Формат : AC-3
Формат/Информация : Audio Coding 3
Коммерческое название : Dolby Digital
Идентификатор кодека : A_AC3
Продолжительность : 1 ч. 38 м.
Вид битрейта : Постоянный
Битрейт : 384 Кбит/сек
Каналы : 6 каналов
Channel layout : L R C LFE Ls Rs
Частота : 48,0 КГц
Частота кадров : 31,250 кадров/сек (1536 SPF)
Битовая глубина : 16 бит
Метод сжатия : С потерями
Размер потока : 271 Мбайт (6%)
Заголовок : Russian @DD5.1 AC3, 384 Kbps, 48.0 KHz, 6 ch
Язык : Russian
ServiceKind/String : Complete Main
Default : Да
Forced : Нет
Меню
00:00:00.000 : :Глава 01 / :Глава 01
--

Скриншоты

-- --

Как закачать отдельный файл

1. Открыть торрент
2. Снять галки с тех файлов торрента, которые мы не хотим закачивать. Оставляем только на нужных нам файлах (файле).
3. Нажать О.К.
В клиенте utorrent
Инструкция
1) Открыть торрент

2) Снять галки с тех файлов торрента, которые мы не хотим закачивать:
* либо вручную, снимая с каждого файла галку( скрин №1)
* либо, нажав кнопку "Снять метки (Select None)", сняв сразу со всех файлов(скрин №2)
№1

№2

Оставляем только на нужных нам файлах (файле).

3)Нажать О.К
-- -- --Внимание!!! 01.06. 2019. РАЗДАЧА ОБНОВЛЕНА. ДОБАВЛЕНА - 9- 10-СЕРИЯ. ФИНАЛ СЕЗОНА. ОБНОВИТЕ ТОРЕНТ ФАЙЛ. ПРИЯТНОГО ПРОСМОТРА . Поблагодарить:
ЯД: 410017546713876
--Релиз от: Nikolai.Baranov & PIRATIYA -- -- -- --Время раздачи : 24/7---

_________________

Легко быть оптимистом, когда судьба не валит с ног тяжелыми ударами, а лишь иногда легонько шлепает по заднице.
[Торрент-статистика]
[Профиль]  [ЛС] 
Показать сообщения:    
Ответить на тему

Текущее время: Сегодня 21:03

Часовой пояс: GMT + 4



Вы не можете начинать темы
Вы не можете отвечать на сообщения
Вы не можете редактировать свои сообщения
Вы не можете удалять свои сообщения
Вы не можете голосовать в опросах
Вы не можете прикреплять файлы к сообщениям
Вы не можете скачивать файлы