Хэппи! / Happy! (Сезон 2 , Серия 1-8 из 10) (Брайан Тейлор, Дэвид Петрарка) [2019,Комедия, фэнтези, криминал, триллер, детектив,WEB-DLRip 720p] [LostFilm+Jaskier+Kubik v Kubike+HDrezka+Eng]+[Subs Rus , ENG]

Ответить на тему
 
Автор
Сообщение

Враг Нароода ®

Пол:

Стаж: 1 год 8 месяцев

Сообщений: 123

Репутация: 120 [+] [-]

Откуда: Красногорск

Пост 05-Апр-2019 15:14

[Цитировать] 

-- --Хэппи! / Happy! Сезон 2 , Серия 1-8 из 10-- --Год выпуска: 2019
Выпущено: США , SyFy, Littleton Road, Universal Cable Productions
Жанр:Комедия, фэнтези, криминал, триллер, детектив
Продолжительность:00:50:00
Сезон:2
Серия:1-8
Количество серий в сезоне:10--Озвучка #1: Профессиональный многоголосый - LostFilm - Русский
Озвучка #2: Профессиональный многоголосый - Jaskier - Русский
Озвучка #3: Профессиональный многоголосый - Кубик в Кубе - Русский
Озвучка #4: Профессиональный многоголосый - HDrezkaStudio - Русский
Озвучка #5: Профессиональный многоголосый -Английский - Оригинал
Субтитры: Russian , English, English SDH
--ВНИМАНИЕ! В сериале пНенормативная лексика --MDB --Режиссеры:
Брайан Тейлор, Дэвид Петрарка--В ролях: Кристофер Мелони, Рен Колли, Александр Джеймисон, Брайс Лоренцо, Майкл Мейзе, Лили Мирожник, Скотт Барик, Бен Коул, Данте Перейра-Олсон, Маттиас Себастьан Гарри-- Трепещите, ваши глаза будут снова осквернены: на экраны возвращается бывший коп, действующий киллер и алкоголик 80 уровня Ник Сакс со своим безумным четвероногим другом — единорогом Хэппи. Драки пенсионеров, долбанутые пасхальные кролики, взрывающиеся монашки и прочее чистое безумие ждет тех, кто отважится посмотреть второй сезон черной комедии «Хэппи!». В новом сезоне Нику и его веселому другу предстоит «поднять Пасху с колен». Создатели одного из самых безбашенных сериалов на современном ТВ пообещали, что новые серии заведут нас «туда, где солнце не светит», и попросили детей не смотреть это под кайфом. Впрочем, судя по отзывам новичков актерского состава, «Хэппи!» сам по себе может оказаться неплохим допингом, после которого особо впечатлительным натурам понадобится доза успокоительного...-- --Качество :WEB-DLRip 720p
Формат: MKV
Видео кодек: H264
Видео: 3947Кбит/сек,1280х720(16.9),в 23.976кадр/сек,AVC (High@L3.1)(CABAC/4 Ref Frames)--Аудио Кодек:AC3
Аудио #1:AC3 640 Kbps, 48.0 KHz, 6 ch- Lostfilm -Русский
Аудио #2:AC3 384 Kbps, 48.0 KHz, 6 ch- Jaskier -Русский
Аудио #3:AC3 384 Kbps, 48.0 KHz, 6 ch- Кубик в Кубе -Русский
Аудио #4:AC3 384 Kbps, 48.0 KHz, 6 ch- HDrezkaStudio -Русский
Аудио #5: AC3, 640 Kbps, 48.0 KHz,6 ch - - English - Оригинал--

Доп. информация:

Звуковая дорожка сделана путем наложения чистого голоса озвучивателей на центральный канал оригинальной дорожки. Качество идентично звуковой дорожке.
--

Список эпизодов сезона


2 сезон 1 серия - Война на Пасху - The War on Easter
2 сезон 2 серия - Таллахасси - Tallahassee
2 сезон 3 серия - Некоторым раскаяние не повредит - Some Girls Need a Lot of Repenting
2 сезон 4 серия - Блицкриг!!! - Blitzkrieg!!!
2 сезон 5 серия - 19 часов и 13 минут - 19 Hours and 13 Minutes
2 сезон 6 серия - Развратопалузза - Pervapalozza
2 сезон 7 серия - Арло и Мари - Arlo and Marie
2 сезон 8 серия - Друг смерти - A Friend of Death
--

MediaInfo сезона

Общее
Уникальный идентификатор : 155558257658303942911919037436707081548 (0x75076E3F3705905D0AD76B8BEAD20D4C)
Полное имя : C:\Users\Russian Patriot\Downloads\ХЭППИ - Happy\HAPPY_2019_S02_Н264_DD5.1_N.B_HD_720_3xRus_Eng\Happy_2019_S02E01_Н264_DD5.1_N.B_HD_720_3xRus_Eng.mkv
Формат : Matroska
Версия формата : Version 4
Размер файла : 2,03 Гбайт
Продолжительность : 48 м. 27 с.
Общий поток : 5998 Кбит/сек
Название фильма : Happy 2019 S02E01 @ Nikolai.Baranov & PIRATIYA
Дата кодирования : UTC 2019-04-05 07:52:36
Программа кодирования : mkvmerge v32.0.0 ('Astral Progressions') 64-bit
Библиотека кодирования : libebml v1.3.7 + libmatroska v1.5.0
Видео
Идентификатор : 1
Формат : AVC
Формат/Информация : Advanced Video Codec
Профиль формата : High@L3.1
Настройки формата : CABAC / 4 Ref Frames
Параметр CABAC формата : Да
Параметр RefFrames формата : 4 кадра
Идентификатор кодека : V_MPEG4/ISO/AVC
Продолжительность : 48 м. 27 с.
Вид битрейта : Постоянный
Битрейт : 3947 Кбит/сек
Номинальный битрейт : 6000 Кбит/сек
Ширина : 1280 пикселей
Высота : 720 пикселей
Соотношение сторон : 16:9
Режим частоты кадров : Постоянный
Частота кадров : 23,976 (24000/1001) кадра/сек
Цветовое пространство : YUV
Субдискретизация насыщенности : 4:2:0
Битовая глубина : 8 бит
Тип развёртки : Прогрессивная
Бит/(Пиксели*Кадры) : 0.179
Размер потока : 1,34 Гбайт (66%)
Заголовок : Happy_2019_S02E01_Н264_DD5.1_N.B_HD_720_3xRus_Eng
Язык : Russian
Default : Да
Forced : Нет
Цветовой диапазон : Limited
Основные цвета : BT.709
Характеристики трансфера : BT.709
Коэффициенты матрицы : BT.709
Аудио #1
Идентификатор : 5
Формат : AC-3
Формат/Информация : Audio Coding 3
Коммерческое название : Dolby Digital
Идентификатор кодека : A_AC3
Продолжительность : 48 м. 27 с.
Вид битрейта : Постоянный
Битрейт : 640 Кбит/сек
Каналы : 6 каналов
Channel layout : L R C LFE Ls Rs
Частота : 48,0 КГц
Частота кадров : 31,250 кадров/сек (1536 SPF)
Битовая глубина : 16 бит
Метод сжатия : С потерями
Размер потока : 222 Мбайт (11%)
Заголовок : MVO LostFilm @DD5.1 AC3, 640 Kbps, 48.0 KHz, 6 ch
Язык : Russian
ServiceKind/String : Complete Main
Default : Да
Forced : Нет
Аудио #2
Идентификатор : 6
Формат : AC-3
Формат/Информация : Audio Coding 3
Коммерческое название : Dolby Digital
Идентификатор кодека : A_AC3
Продолжительность : 48 м. 27 с.
Вид битрейта : Постоянный
Битрейт : 384 Кбит/сек
Каналы : 6 каналов
Channel layout : L R C LFE Ls Rs
Частота : 48,0 КГц
Частота кадров : 31,250 кадров/сек (1536 SPF)
Битовая глубина : 16 бит
Метод сжатия : С потерями
Размер потока : 133 Мбайт (6%)
Заголовок : MVO Jaskier @DD5.1 AC3, 384 Kbps, 48.0 KHz, 6 ch
Язык : Russian
ServiceKind/String : Complete Main
Default : Нет
Forced : Нет
Аудио #3
Идентификатор : 7
Формат : AC-3
Формат/Информация : Audio Coding 3
Коммерческое название : Dolby Digital
Идентификатор кодека : A_AC3
Продолжительность : 48 м. 27 с.
Вид битрейта : Постоянный
Битрейт : 384 Кбит/сек
Каналы : 6 каналов
Channel layout : L R C LFE Ls Rs
Частота : 48,0 КГц
Частота кадров : 31,250 кадров/сек (1536 SPF)
Битовая глубина : 16 бит
Метод сжатия : С потерями
Размер потока : 133 Мбайт (6%)
Заголовок : MVO Kubik v ubike @DD5.1 AC3, 384 Kbps, 48.0 KHz, 6 ch
Язык : Russian
ServiceKind/String : Complete Main
Default : Нет
Forced : Нет
Аудио #4
Идентификатор : 8
Формат : AC-3
Формат/Информация : Audio Coding 3
Коммерческое название : Dolby Digital
Идентификатор кодека : A_AC3
Продолжительность : 48 м. 27 с.
Вид битрейта : Постоянный
Битрейт : 640 Кбит/сек
Каналы : 6 каналов
Channel layout : L R C LFE Ls Rs
Частота : 48,0 КГц
Частота кадров : 31,250 кадров/сек (1536 SPF)
Битовая глубина : 16 бит
Метод сжатия : С потерями
Размер потока : 222 Мбайт (11%)
Заголовок : Original@DD5.1 AC3 ,640 Kbps, 48.0 KHz, 6 ch
Язык : English
ServiceKind/String : Complete Main
Default : Нет
Forced : Нет
Текст #1
Идентификатор : 2
Формат : UTF-8
Идентификатор кодека : S_TEXT/UTF8
Идентификатор кодека/Информация : UTF-8 Plain Text
Продолжительность : 47 м. 53 с.
Битрейт : 105 бит/сек
ElementCount : 778
Размер потока : 36,9 Кбайт (0%)
Заголовок : Rus
Язык : Russian
Default : Да
Forced : Нет
Текст #2
Идентификатор : 3
Формат : UTF-8
Идентификатор кодека : S_TEXT/UTF8
Идентификатор кодека/Информация : UTF-8 Plain Text
Продолжительность : 47 м. 59 с.
Битрейт : 79 бит/сек
ElementCount : 1007
Размер потока : 27,9 Кбайт (0%)
Заголовок : Original - SDH
Язык : English
Default : Нет
Forced : Нет
Текст #3
Идентификатор : 4
Формат : UTF-8
Идентификатор кодека : S_TEXT/UTF8
Идентификатор кодека/Информация : UTF-8 Plain Text
Продолжительность : 47 м. 52 с.
Битрейт : 65 бит/сек
ElementCount : 761
Размер потока : 23,1 Кбайт (0%)
Заголовок : Original
Язык : English
Default : Нет
Forced : Нет
Меню
00:00:00.000 : :Глава 01 / :Глава 01 / :Глава 01 / :Глава 01 / :Глава 01 / :Глава 01 / :Глава 01 / :Глава 01
--

Скриншоты

-- --Внимание! Раздача пополняется по мере выхода новых серий!--

Внимание! Раздача ведётся путём добавления новых серий!

Раздача ведётся путём добавления новых серий; при каждом добавлении создётся новый торрент.
Чтобы начать докачку новой серии, пользователям необходимо сделать следующее:
1. остановить скачивание,
2. удалить старый торрент у себя из клиента (старые серии удалять не надо),
3. скачать новый торрент и запустить его у себя в клиенте вместо старого, при этом указать клиенту путь в старую папку, куда и должно происходить скачивание новых серий.
Ваш клиент при этом должен произвести хеширование (проверку) старой папки (если не производит сам - помогите ему сделать это), и будет докачивать только те серии которых у вас ещё нет. Старые серии при этом не удаляются, а продолжают раздаваться!
Eсли вы уже удалили старые серии, то предотвратить повторную закачку старых серий можно, отжав галочку в соответсвующих местах при запуске нового торрента. По возможности, желательно не удалять старые серии как можно дольше, чтобы релизёр не столько продолжал раздавать старые серии, а смог сконцентрироваться на новых.
Совет для тех, кто не хочет ждать перехеширования:
Создайте ещё одну папку рядом с папкой сериала (рядом, а не в ней!!!). Каждую новую серию после удачной загрузки копируйте в новую папку так чтобы ваша основная папка всегда была пуста. Когда ваш новый торрент предложит вам закачать все файлы, выберете только последнюю. Для сидирования же укажите адрес новой папки.
Как закачать отдельный файл из торрента или докачать ранее пропущенные файлы торрента!

Как закачать отдельный файл

1. Открыть торрент
2. Снять галки с тех файлов торрента, которые мы не хотим закачивать. Оставляем только на нужных нам файлах (файле).
3. Нажать О.К.
В клиенте utorrent
Инструкция
1) Открыть торрент

2) Снять галки с тех файлов торрента, которые мы не хотим закачивать:
* либо вручную, снимая с каждого файла галку( скрин №1)
* либо, нажав кнопку "Снять метки (Select None)", сняв сразу со всех файлов(скрин №2)
№1

№2

Оставляем только на нужных нам файлах (файле).

3)Нажать О.К
-- -- --Релиз от: Nikolai.Baranov & PIRATIYA . Поблагодарить:
ЯД: 410017546713876
-- -- -- --Время раздачи : 24/7--

_________________

Легко быть оптимистом, когда судьба не валит с ног тяжелыми ударами, а лишь иногда легонько шлепает по заднице.
[Торрент-статистика]
[Профиль]  [ЛС] 
Показать сообщения:    
Ответить на тему

Текущее время: Сегодня 07:00

Часовой пояс: GMT + 4



Вы не можете начинать темы
Вы не можете отвечать на сообщения
Вы не можете редактировать свои сообщения
Вы не можете удалять свои сообщения
Вы не можете голосовать в опросах
Вы не можете прикреплять файлы к сообщениям
Вы не можете скачивать файлы