Перерождение / The Passage (Сезон 1 , Серия 1-10 из 10) ( Джейсон Энслер, Эллисон Лидди, Маркос Сига) [2019,Ужасы, фэнтези, боевик, драма, приключения, экранизация,WEB-DLRip 1080p] [LostFilm+TVShows+Eng]+[Subs Rus , ENG]

Ответить на тему
 
Автор
Сообщение

Враг Нароода ®

Пол:

Стаж: 1 год 3 месяца

Сообщений: 88

Репутация: 57 [+] [-]

Откуда: Красногорск

Пост 25-Янв-2019 13:22

[Цитировать] 

-- --Перерождение / The Passage Сезон 1 , Серия 1-10 из 10 - Полный Комплект-- --Год выпуска: 2019
Выпущено: США , 20th Century Fox Television, 6th & Idaho Productions, Scott Free Productions
Жанр:Ужасы, фэнтези, боевик, драма, приключения, экранизация
Продолжительность:00:45:00
Сезон:1
Серия:1-10
Количество серий в сезоне:10--Озвучка #1: Профессиональный многоголосый - LostFilm - Русский
Озвучка #2: Профессиональный многоголосый - TVShows - Русский
Озвучка #3: Профессиональный многоголосый -Английский - Оригинал
Субтитры: Russian , English, English SDH
--Релиз Без Рекламы --MDB --Режиссеры:
Джейсон Энслер, Эллисон Лидди, Маркос Сига--В ролях:Брианна Хоуи, МакКинли Белчер III, Брианна Браун, Кэролайн Чикези, Эммануэль Шрики, Генри Иэн Кьюсик, Марк-Пол Госселаар, Джейми МакШейн, Винсент Пьяцца, Саня Сидни-- В Южной Америке несколько человек, больных раком, становятся жертвами нападения летучих мышей. Внезапно обнаруживается, что укус этих существ исцеляет людей от смертельного недуга. Правительство начинает соответствующие эксперименты и в конечном итоге оказывается нос к носу с огромной толпой практически не убиваемых вампиров, обладающих способностью к телепатии, которые начинают распространяться среди населения и увеличивать собственную популяцию.-- --Качество :WEB-DLRip 1080p
Формат: MKV
Видео кодек: H264
Видео: 9230Кбит/сек,1920х1080(16.9),в 23.976кадр/сек,AVC (High@L4)(CABAC/4 Ref Frames)--Аудио Кодек:AC3
Аудио #1:AC3 640 Kbps, 48.0 KHz, 6 ch- Lostfilm -Русский
Аудио #2:AC3 384 Kbps, 48.0 KHz, 6 ch- TVShows -Русский
Аудио #3: AC3, 640 Kbps, 48.0 KHz,6 ch - - English - Оригинал--

Доп. информация:

Звуковая дорожка сделана путем наложения чистого голоса озвучивателей на центральный канал оригинальной дорожки. Качество идентично звуковой дорожке.
--

Список эпизодов сезона


1 сезон 1 серия - Пилот - Pilot
1 сезон 2 серия - С тебя единорог - You Owe Me a Unicorn
1 сезон 3 серия - Такого не должно было случиться - That Never Should Have Happened to You
1 сезон 4 серия - Чья это кровь? - Whose Blood Is That?
1 сезон 5 серия - Как убежать от конца света? - How You Gonna Outrun the End of the World?
1 сезон 6 серия - Я хочу узнать, какая ты на вкус - I Want to Know What You Taste Like
1 сезон 7 серия - Ты как само солнце - You Are Like the Sun
1 сезон 8 серия - Ты уже не та девочка - You Are Not That Girl Anymore
1 сезон 9 серия - Оставайтесь на свету - Stay in the Light
1 сезон 10 серия - Последний урок - Last Lesson
--

MediaInfo сезона

Общее
Уникальный идентификатор : 23982504283493749131984295195827658894 (0x120ADCC09DDFF8304729260C84BA608E)
Полное имя : E:\Nikolai.Baranov & PIRATIYA\Перерождение - The Passage\The_Passage_2019_S01_N.B_HD_1080_LostFilm_Rus_Eng\The_Passage_S01Е01_Н264_DD5.1_N.B_HD_1080_LostFilm_Rus_Eng.mkv
Формат : Matroska
Версия формата : Version 4
Размер файла : 3,38 Гбайт
Продолжительность : 44 м. 54 с.
Общий поток : 10,8 Мбит/сек
Название фильма : The Passage 2019 S01Е01 @ Nikolai.Baranov & PIRATIYA
Дата кодирования : UTC 2019-02-15 07:49:11
Программа кодирования : mkvmerge v31.0.0 ('Dolores In A Shoestand') 64-bit
Библиотека кодирования : libebml v1.3.6 + libmatroska v1.4.9
Обложка : Yes
Attachments : small_cover.jpg / cover.jpg
Видео
Идентификатор : 1
Формат : AVC
Формат/Информация : Advanced Video Codec
Профиль формата : High@L4
Настройки формата : CABAC / 4 Ref Frames
Параметр CABAC формата : Да
Параметр RefFrames формата : 4 кадра
Идентификатор кодека : V_MPEG4/ISO/AVC
Продолжительность : 44 м. 16 с.
Вид битрейта : Постоянный
Битрейт : 9230 Кбит/сек
Номинальный битрейт : 10000 Кбит/сек
Ширина : 1920 пикселей
Высота : 1080 пикселей
Соотношение сторон : 16:9
Режим частоты кадров : Постоянный
Частота кадров : 23,976 (24000/1001) кадра/сек
Цветовое пространство : YUV
Субдискретизация насыщенности : 4:2:0
Битовая глубина : 8 бит
Тип развёртки : Прогрессивная
Бит/(Пиксели*Кадры) : 0.186
Размер потока : 2,85 Гбайт (85%)
Заголовок : The_Passage_S01Е01_Н264_DD5.1_N.B_HD_1080_LostFilm_Rus_Eng
Язык : English
Default : Нет
Forced : Нет
Цветовой диапазон : Limited
Основные цвета : BT.709
Характеристики трансфера : BT.709
Коэффициенты матрицы : BT.709
Аудио #1
Идентификатор : 6
Формат : AC-3
Формат/Информация : Audio Coding 3
Коммерческое название : Dolby Digital
Идентификатор кодека : A_AC3
Продолжительность : 44 м. 54 с.
Вид битрейта : Постоянный
Битрейт : 640 Кбит/сек
Каналы : 6 каналов
Channel layout : L R C LFE Ls Rs
Частота : 48,0 КГц
Частота кадров : 31,250 кадров/сек (1536 SPF)
Битовая глубина : 16 бит
Метод сжатия : С потерями
Размер потока : 206 Мбайт (6%)
Заголовок : MVO LostFilm @DD5.1 AC3, 640 Kbps, 48.0 KHz, 6 ch
Язык : Russian
ServiceKind/String : Complete Main
Default : Да
Forced : Нет
Аудио #2
Идентификатор : 7
Формат : AC-3
Формат/Информация : Audio Coding 3
Коммерческое название : Dolby Digital
Идентификатор кодека : A_AC3
Продолжительность : 44 м. 54 с.
Вид битрейта : Постоянный
Битрейт : 640 Кбит/сек
Каналы : 6 каналов
Channel layout : L R C LFE Ls Rs
Частота : 48,0 КГц
Частота кадров : 31,250 кадров/сек (1536 SPF)
Битовая глубина : 16 бит
Метод сжатия : С потерями
Размер потока : 206 Мбайт (6%)
Заголовок : Original@DD5.1 AC3 ,640 Kbps, 48.0 KHz, 6 ch
Язык : English
ServiceKind/String : Complete Main
Default : Нет
Forced : Нет
Аудио #3
Идентификатор : 8
Формат : AC-3
Формат/Информация : Audio Coding 3
Коммерческое название : Dolby Digital
Идентификатор кодека : A_AC3
Продолжительность : 44 м. 54 с.
Вид битрейта : Постоянный
Битрейт : 384 Кбит/сек
Каналы : 6 каналов
Channel layout : L R C LFE Ls Rs
Частота : 48,0 КГц
Частота кадров : 31,250 кадров/сек (1536 SPF)
Битовая глубина : 16 бит
Метод сжатия : С потерями
Размер потока : 123 Мбайт (4%)
Заголовок : MVO TVShows @DD5.1 AC3, 384 Kbps, 48.0 KHz, 6 ch
Язык : Russian
ServiceKind/String : Complete Main
Default : Нет
Forced : Нет
Текст #1
Идентификатор : 2
Формат : UTF-8
Идентификатор кодека : S_TEXT/UTF8
Идентификатор кодека/Информация : UTF-8 Plain Text
Продолжительность : 7 м. 58 с.
Битрейт : 2 бит/сек
ElementCount : 2
Размер потока : 122 байт (0%)
Заголовок : Rus - Forced
Язык : Russian
Default : Да
Forced : Нет
Текст #2
Идентификатор : 3
Формат : UTF-8
Идентификатор кодека : S_TEXT/UTF8
Идентификатор кодека/Информация : UTF-8 Plain Text
Продолжительность : 44 м. 13 с.
Битрейт : 69 бит/сек
ElementCount : 797
Размер потока : 22,6 Кбайт (0%)
Заголовок : Original - SDH
Язык : English
Default : Нет
Forced : Нет
Текст #3
Идентификатор : 4
Формат : UTF-8
Идентификатор кодека : S_TEXT/UTF8
Идентификатор кодека/Информация : UTF-8 Plain Text
Продолжительность : 44 м. 3 с.
Битрейт : 65 бит/сек
ElementCount : 745
Размер потока : 21,1 Кбайт (0%)
Заголовок : Original
Язык : English
Default : Нет
Forced : Нет
Текст #4
Идентификатор : 5
Формат : UTF-8
Идентификатор кодека : S_TEXT/UTF8
Идентификатор кодека/Информация : UTF-8 Plain Text
Продолжительность : 43 м. 25 с.
Битрейт : 100 бит/сек
ElementCount : 676
Размер потока : 32,1 Кбайт (0%)
Заголовок : Rus
Язык : Russian
Default : Нет
Forced : Нет
Меню
00:00:00.000 : :Глава 01 / :Глава 01 / :Глава 01 / :Глава 01 / :Глава 01 / :Глава 01 / :Глава 01 / :Глава 01
--

Скриншоты

-- --

Как закачать отдельный файл

1. Открыть торрент
2. Снять галки с тех файлов торрента, которые мы не хотим закачивать. Оставляем только на нужных нам файлах (файле).
3. Нажать О.К.
В клиенте utorrent
Инструкция
1) Открыть торрент

2) Снять галки с тех файлов торрента, которые мы не хотим закачивать:
* либо вручную, снимая с каждого файла галку( скрин №1)
* либо, нажав кнопку "Снять метки (Select None)", сняв сразу со всех файлов(скрин №2)
№1

№2

Оставляем только на нужных нам файлах (файле).

3)Нажать О.К
-- -- --Внимание!!! 21.03. 2019. РАЗДАЧА ОБНОВЛЕНА. ДОБАВЛЕНА - 9-10-СЕРИЯ. Финал Сезона . ОБНОВИТЕ ТОРЕНТ ФАЙЛ. ПРИЯТНОГО ПРОСМОТРА . Поблагодарить:
ЯД: 410017546713876
--Релиз от: Nikolai.Baranov & PIRATIYA -- -- -- --Время раздачи : 24/7--

_________________

Легко быть оптимистом, когда судьба не валит с ног тяжелыми ударами, а лишь иногда легонько шлепает по заднице.
[Торрент-статистика]
[Профиль]  [ЛС] 
Показать сообщения:    
Ответить на тему

Текущее время: Сегодня 22:31

Часовой пояс: GMT + 4



Вы не можете начинать темы
Вы не можете отвечать на сообщения
Вы не можете редактировать свои сообщения
Вы не можете удалять свои сообщения
Вы не можете голосовать в опросах
Вы не можете прикреплять файлы к сообщениям
Вы не можете скачивать файлы