Каратель / The Punisher (Сезон 2 , Серия 1-13 из 13) (Энди Годдард, Марк Йобст, Кари Скогланд) [2019,Фантастика, боевик, триллер, драма, криминал, приключения ,WEB-DLRip 1080p] [LostFilm+NewStudio+Eng]+[Subs Rus , ENG]

Ответить на тему
 
Автор
Сообщение

Враг Нароода ®

Пол:

Стаж: 1 год 7 месяцев

Сообщений: 117

Репутация: 108 [+] [-]

Откуда: Красногорск

Пост 23-Янв-2019 14:11

[Цитировать] 

-- --Каратель / The Punisher Серия 1-13 из 13 - Полный Комплект-- --Год выпуска: 2019
Выпущено: США , Marvel Television
Жанр:Фантастика, боевик, триллер, драма, криминал, приключения
Продолжительность: 00:53:00
Сезон:2
Серия:1-13
Количество серий в сезоне:13--Озвучка 1: Профессиональный многоголосый - LostFilm - Русский
Озвучка 2: Профессиональный многоголосый - NewStudio - Русский
Озвучка 3: Профессиональный многоголосый -Английский - Оригинал
Субтитры: Russian , English, English SDH
--Релиз Без Рекламы - ВНИМАНИЕ! В сериале пНенормативная лексика --Официальный сайт
MDB --Режиссеры:
Энди Годдард, Марк Йобст, Кари Скогланд--В ролях: Джон Бернтал, Джейсон Р. Мур, Эбон Мосс-Бакрак, Майкл Натансон, Джейми Рэй Ньюман, Эмбер Роуз Рева, Пол Шульц, Даниэль Уэббер, Дебора Энн Уолл-- Бывший морпех Фрэнк Касл на время покончил с ролью линчевателя и отправился колесить по стране. Но мирная жизнь продлилась недолго — он ввязывается в дело, связанное с попыткой убийства девчонки-подростка. Втянутый в тайну, окружающую его новую знакомую и тех, кто на неё охотится, Касл снова подставляет себя под пули. Вступив в противостояние с новыми и старыми врагами, главный герой должен решить раз и навсегда, готов ли он окончательно перевоплотиться в Карателя.-- --Качество :WEB-DLRip 1080p
Формат: MKV
Видео кодек: H264
Видео: 16,6Мбит/сек,1920х1080(16.9),в 23.976кадр/сек,AVC (High@L4.1)(CABAC/4 Ref Frames)--Аудио Кодек:AC3
Аудио #1:AC3 640 Kbps, 48.0 KHz, 6 ch- Lostfilm -Русский
Аудио #2:AC3 384 Kbps, 48.0 KHz, 6 ch- NewStudio -Русский
Аудио #3: AC3, 640 Kbps, 48.0 KHz,6 ch - - English - Оригинал--

Доп. информация:

Звуковая дорожка сделана путем наложения чистого голоса озвучивателей на центральный канал оригинальной дорожки. Качество идентично звуковой дорожке.
--

Список эпизодов сезона


2 сезон 1 серия - Придорожный блюз - Episode #2.1
2 сезон 2 серия - Бей или беги - Episode #2.2
2 сезон 3 серия - Возмущенные воды - Trouble the Water
2 сезон 4 серия - Рубцовая ткань - Scar Tissue
2 сезон 5 серия - Одноглазый валет - One-Eyed Jacks
2 сезон 6 серия - Наказать - Nakazat
2 сезон 7 серия - Один плохой день - One Bad Day
2 сезон 8 серия - Сторож брату моему - My Brother's Keeper
2 сезон 9 серия - Полная лажа - Flustercluck
2 сезон 10 серия - Темные сердца мужчин - The Dark Hearts of Men
2 сезон 11 серия - Бездна - The Abyss
2 сезон 12 серия - Курс на столкновение - Collision Course
2 сезон 13 серия - Стихийное бедствие - The Whirlwind
--

MediaInfo сезона

Общее
Уникальный идентификатор : 269881345571458626397676746482190077371 (0xCB0941A91DC27D45F78846B1C5434DBB)
Полное имя : E:\Nikolai.Baranov & PIRATIYA\Каратель - The Punisher\The_Punisher_2019_S02_N.B_HD_1080_LostFilm_Rus_Eng\The_Punisher_S02Е01_Н264_DD5.1_N.B_HD_1080_LostFilm_Rus_Eng.mkv
Формат : Matroska
Версия формата : Version 4
Размер файла : 6,71 Гбайт
Продолжительность : 52 м. 17 с.
Общий поток : 18,4 Мбит/сек
Название фильма : The Punisher 2019 S02Е01 @ Nikolai.Baranov & PIRATIYA
Дата кодирования : UTC 2019-02-05 10:49:03
Программа кодирования : mkvmerge v30.1.0 ('Forever And More') 64-bit
Библиотека кодирования : libebml v1.3.6 + libmatroska v1.4.9
Видео
Идентификатор : 1
Формат : AVC
Формат/Информация : Advanced Video Codec
Профиль формата : High@L4.1
Настройки формата : CABAC / 4 Ref Frames
Параметр CABAC формата : Да
Параметр RefFrames формата : 4 кадра
Идентификатор кодека : V_MPEG4/ISO/AVC
Продолжительность : 52 м. 17 с.
Битрейт : 16,7 Мбит/сек
Ширина : 1920 пикселей
Высота : 1080 пикселей
Соотношение сторон : 16:9
Режим частоты кадров : Постоянный
Частота кадров : 23,976 (24000/1001) кадра/сек
Цветовое пространство : YUV
Субдискретизация насыщенности : 4:2:0
Битовая глубина : 8 бит
Тип развёртки : Прогрессивная
Бит/(Пиксели*Кадры) : 0.336
Размер потока : 6,10 Гбайт (91%)
Заголовок : The_Punisher_S02Е01_Н264_DD5.1_N.B_HD_1080_LostFilm_Rus_Eng
Библиотека кодирования : x264 core 157 r2935+3 (master: 545de2f / tmod: 0f48dd4) [X86_64]
Настройки программы : cabac=1 / ref=4 / deblock=1:-3:-3 / analyse=0x3:0x133 / me=umh / subme=11 / psy=1 / psy_rd=1.05:0.15 / mixed_ref=1 / me_range=48 / chroma_me=1 / trellis=2 / 8x8dct=1 / cqm=0 / deadzone=6,6 / fast_pskip=0 / chroma_qp_offset=-3 / threads=34 / lookahead_threads=8 / sliced_threads=0 / nr=0 / decimate=0 / interlaced=0 / bluray_compat=0 / constrained_intra=0 / bframes=10 / b_pyramid=2 / b_adapt=2 / b_bias=0 / direct=3 / weightb=1 / open_gop=0 / weightp=2 / keyint=250 / keyint_min=23 / scenecut=40 / intra_refresh=0 / rc_lookahead=60 / rc=crf / mbtree=0 / crf=18.6 / qcomp=0.70 / qpmin=0 / qpmax=69 / qpstep=4 / vbv_maxrate=62500 / vbv_bufsize=78125 / crf_max=0.0 / nal_hrd=none / filler=0 / ip_ratio=1.25 / pb_ratio=1.20 / aq=3:0.70
Язык : Russian
Default : Да
Forced : Нет
Аудио #1
Идентификатор : 6
Формат : AC-3
Формат/Информация : Audio Coding 3
Коммерческое название : Dolby Digital
Идентификатор кодека : A_AC3
Продолжительность : 52 м. 16 с.
Вид битрейта : Постоянный
Битрейт : 640 Кбит/сек
Каналы : 6 каналов
Channel layout : L R C LFE Ls Rs
Частота : 48,0 КГц
Частота кадров : 31,250 кадров/сек (1536 SPF)
Битовая глубина : 16 бит
Метод сжатия : С потерями
Размер потока : 239 Мбайт (3%)
Заголовок : MVO LostFilm @DD5.1 AC3, 640 Kbps, 48.0 KHz, 6 ch
Язык : Russian
ServiceKind/String : Complete Main
Default : Да
Forced : Нет
Аудио #2
Идентификатор : 7
Формат : AC-3
Формат/Информация : Audio Coding 3
Коммерческое название : Dolby Digital
Идентификатор кодека : A_AC3
Продолжительность : 52 м. 17 с.
Вид битрейта : Постоянный
Битрейт : 384 Кбит/сек
Каналы : 6 каналов
Channel layout : L R C LFE Ls Rs
Частота : 48,0 КГц
Частота кадров : 31,250 кадров/сек (1536 SPF)
Битовая глубина : 16 бит
Метод сжатия : С потерями
Размер потока : 144 Мбайт (2%)
Заголовок : MVO NewStudio @DD5.1 AC3, 384 Kbps, 48.0 KHz, 6 ch
Язык : Russian
ServiceKind/String : Complete Main
Default : Нет
Forced : Нет
Аудио #3
Идентификатор : 8
Формат : AC-3
Формат/Информация : Audio Coding 3
Коммерческое название : Dolby Digital
Идентификатор кодека : A_AC3
Продолжительность : 52 м. 17 с.
Вид битрейта : Постоянный
Битрейт : 640 Кбит/сек
Каналы : 6 каналов
Channel layout : L R C LFE Ls Rs
Частота : 48,0 КГц
Частота кадров : 31,250 кадров/сек (1536 SPF)
Битовая глубина : 16 бит
Метод сжатия : С потерями
Размер потока : 239 Мбайт (3%)
Заголовок : Original@DD5.1 AC3 ,640 Kbps, 48.0 KHz, 6 ch
Язык : English
ServiceKind/String : Complete Main
Default : Нет
Forced : Нет
Текст #1
Идентификатор : 2
Формат : ASS
Идентификатор кодека : S_TEXT/ASS
Идентификатор кодека/Информация : Advanced Sub Station Alpha
Продолжительность : 1 с. 670 мс.
Битрейт : 316 бит/сек
ElementCount : 1
Метод сжатия : Без потерь
Размер потока : 66,0 байт (0%)
Заголовок : Rus - Forced
Язык : Russian
Default : Да
Forced : Нет
Текст #2
Идентификатор : 3
Формат : UTF-8
Идентификатор кодека : S_TEXT/UTF8
Идентификатор кодека/Информация : UTF-8 Plain Text
Продолжительность : 50 м. 51 с.
Битрейт : 61 бит/сек
ElementCount : 501
Размер потока : 22,9 Кбайт (0%)
Заголовок : Rus
Язык : Russian
Default : Нет
Forced : Нет
Текст #3
Идентификатор : 4
Формат : UTF-8
Идентификатор кодека : S_TEXT/UTF8
Идентификатор кодека/Информация : UTF-8 Plain Text
Продолжительность : 50 м. 50 с.
Битрейт : 55 бит/сек
ElementCount : 671
Размер потока : 20,6 Кбайт (0%)
Заголовок : Original - SDH
Язык : English
Default : Нет
Forced : Нет
Текст #4
Идентификатор : 5
Формат : UTF-8
Идентификатор кодека : S_TEXT/UTF8
Идентификатор кодека/Информация : UTF-8 Plain Text
Продолжительность : 50 м. 13 с.
Битрейт : 48 бит/сек
ElementCount : 574
Размер потока : 18,0 Кбайт (0%)
Заголовок : Original
Язык : English
Default : Нет
Forced : Нет
Меню
00:00:00.000 : :Глава 01 / :Глава 01 / :Глава 01 / :Глава 01 / :Глава 01 / :Глава 01 / :Глава 01 / :Глава 01
--

Скриншоты

-- --

Как закачать отдельный файл

1. Открыть торрент
2. Снять галки с тех файлов торрента, которые мы не хотим закачивать. Оставляем только на нужных нам файлах (файле).
3. Нажать О.К.
В клиенте utorrent
Инструкция
1) Открыть торрент

2) Снять галки с тех файлов торрента, которые мы не хотим закачивать:
* либо вручную, снимая с каждого файла галку( скрин №1)
* либо, нажав кнопку "Снять метки (Select None)", сняв сразу со всех файлов(скрин №2)
№1

№2

Оставляем только на нужных нам файлах (файле).

3)Нажать О.К
-- -- --Внимание!!! 27.02. 2019. РАЗДАЧА ОБНОВЛЕНА. ФИНАЛ СЕЗОНА . ОБНОВИТЕ ТОРЕНТ ФАЙЛ. ПРИЯТНОГО ПРОСМОТРА . Поблагодарить:
ЯД: 410017546713876
--Релиз от: Nikolai.Baranov & PIRATIYA -- -- -- --Время раздачи : 24/7--

_________________

Легко быть оптимистом, когда судьба не валит с ног тяжелыми ударами, а лишь иногда легонько шлепает по заднице.
[Торрент-статистика]
[Профиль]  [ЛС] 
Показать сообщения:    
Ответить на тему

Текущее время: Сегодня 21:52

Часовой пояс: GMT + 4



Вы не можете начинать темы
Вы не можете отвечать на сообщения
Вы не можете редактировать свои сообщения
Вы не можете удалять свои сообщения
Вы не можете голосовать в опросах
Вы не можете прикреплять файлы к сообщениям
Вы не можете скачивать файлы