Операция «Сатана» / Operation«Satana» (Серия 1-8 из 8)(Юрий Мороз) [2018, Детектив, криминал , WEB-DLRip-AVC][1080p][DD5.1]

Ответить на тему
 
Автор
Сообщение

Враг Нароода ®

Пол:

Стаж: 9 месяцев 17 дней

Сообщений: 50

Репутация: 24 [+] [-]

Откуда: Красногорск

Пост 05-Окт-2018 00:24

[Цитировать] 

--Операция «Сатана» / Operation«Satana» Серии 1-8 из 8 -- --Год выпуска: 2018
Выпущено: Россия , , Красный квадрат кино, Студия Русский проект
Жанр: Детектив, криминал
Продолжительность: 00:50:00
Серия: 1-8
Количество серий в сезоне: 8
Озвучка : -Русский --Релиз Без Рекламы--Кинопоиск --Режиссер:
Юрий Мороз--В ролях: Андрей Смоляков, Марина Александрова (I), Даниэла Стоянович, Владимир Юматов, Сергей Угрюмов, Луиза Мосендз, Яна Сексте, Владимир Ильин, Виктория Исакова, Александр Домогаров ст., Сергей Колтаков, Игорь Гордин, Александра Ребенок, Александр Голубев, Софья Евстигнеева, Лариса Удовиченко, Юрий Чурсин, Алексей Бардуков, Филипп Гуревич, Дмитрий Куличков, Юрий Тарасов
-- Новая история про майора милиции Ивана Черкасова связана с миром ученых. 1975 год. Холодная война СССР и США. Гонка вооружений. Напряженно работают физики-ядерщики. В Советском Союзе становится очевидной утечка секретной информации. Американцы откуда-то узнают о каждом шаге наших разработчиков нового вида баллистической ракеты. Казалось бы, как может быть связан майор милиции с разведкой спецслужб? Однако именно он, Иван Петрович, уволенный из МУРа, трудящийся обычным участковым, оказывает неоценимую помощь КГБ в поимке американского шпиона. Является продолжением телесериалов «Мосгаз», «Палач»,«Паук» и «Шака́л»-- --Качество :WEB-DLRip 1080p
Формат: MKV
Видео кодек: H264
Видео: 4852Кбит/сек,1920х1080(16.9),в 25.097кадр/сек,AVC (High@L4)(CABAC/2 Ref Frames)--Аудио Кодек:AC3
Аудио #1:AC3 , 384 Kbps, 48.0 KHz, 6 ch-Русский--

MediaInfo

Общее
Уникальный идентификатор : 158695666229570066986676079043009518720 (0x7763AC6EAA06988744A4AE495D131C80)
Полное имя : E:\Nikolai.Baranov & PIRATIYA\Операция «Сатана» - Operation«Satana»\Operation«Satana»_2018_S01_Н264_DD5.1_N.B_WEBRip_1080р_Rus\Operation«Satana»_2018_S01Е01_Н264_DD5.1_N.B_WEBRip_1080р_Rus.mkv
Формат : Matroska
Версия формата : Version 4
Размер файла : 1,84 Гбайт
Продолжительность : 50 м. 14 с.
Режим общего битрейта : Переменный
Общий поток : 5238 Кбит/сек
Название фильма : Operation«Satana» 2018 S01Е01 @ Nikolai.Baranov & PIRATIYA
Дата кодирования : UTC 2018-10-03 16:14:06
Программа кодирования : mkvmerge v27.0.0 ('Metropolis') 64-bit
Библиотека кодирования : libebml v1.3.6 + libmatroska v1.4.9
Видео
Идентификатор : 1
Формат : AVC
Формат/Информация : Advanced Video Codec
Профиль формата : High@L4
Настройки формата : CABAC / 2 Ref Frames
Параметр CABAC формата : Да
Параметр RefFrames формата : 2 кадра
Параметр GOP формата : M=2, N=15
Идентификатор кодека : V_MPEG4/ISO/AVC
Продолжительность : 50 м. 14 с.
Вид битрейта : Переменный
Битрейт : 4852 Кбит/сек
Максимальный битрейт : 16,0 Мбит/сек
Ширина : 1920 пикселей
Высота : 1080 пикселей
Соотношение сторон : 16:9
Режим частоты кадров : Переменный
Частота кадров : 25,097 кадров/сек
Частота кадров в оригинале : 29,970 (30000/1001) кадров/сек
Цветовое пространство : YUV
Субдискретизация насыщенности : 4:2:0
Битовая глубина : 8 бит
Тип развёртки : Прогрессивная
Бит/(Пиксели*Кадры) : 0.093
Размер потока : 1,70 Гбайт (93%)
Заголовок : Operation«Satana»_2018_S01Е01_Н264_DD5.1_N.B_WEBRip_1080р_Rus
Язык : Russian
Default : Да
Forced : Нет
Аудио
Идентификатор : 2
Формат : AC-3
Формат/Информация : Audio Coding 3
Коммерческое название : Dolby Digital
Идентификатор кодека : A_AC3
Продолжительность : 50 м. 14 с.
Вид битрейта : Постоянный
Битрейт : 384 Кбит/сек
Каналы : 6 каналов
Channel layout : L R C LFE Ls Rs
Частота : 48,0 КГц
Частота кадров : 31,250 кадров/сек (1536 SPF)
Битовая глубина : 16 бит
Метод сжатия : С потерями
Размер потока : 138 Мбайт (7%)
Заголовок : Russian @DD5.1 AC3, 384 Kbps, 48.0 KHz, 6 ch
Язык : Russian
ServiceKind/String : Complete Main
Default : Да
Forced : Нет
Меню
00:00:00.000 : :Глава 01 / :Глава 01
-- -- --Внимание! Раздача пополняется по мере выхода новых серий!--

Как закачать отдельный файл

1. Открыть торрент
2. Снять галки с тех файлов торрента, которые мы не хотим закачивать. Оставляем только на нужных нам файлах (файле).
3. Нажать О.К.
В клиенте utorrent
Инструкция
1) Открыть торрент

2) Снять галки с тех файлов торрента, которые мы не хотим закачивать:
* либо вручную, снимая с каждого файла галку( скрин №1)
* либо, нажав кнопку "Снять метки (Select None)", сняв сразу со всех файлов(скрин №2)
№1

№2

Оставляем только на нужных нам файлах (файле).

3)Нажать О.К
-- -- --Внимание!!! 12.10. 2018. РАЗДАЧА ОБНОВЛЕНА. ФИНАЛ СЕЗОНА . ДОБАВЛЕНА 8-СЕРИЯ. ОБНОВИТЕ ТОРЕНТ ФАЙЛ. ПРИЯТНОГО ПРОСМОТРА . Поблагодарить:
ЯД: 410017546713876
--Релиз от: Nikolai.Baranov & PIRATIYA -- -- -- --Время раздачи : 24/7--

_________________

Легко быть оптимистом, когда судьба не валит с ног тяжелыми ударами, а лишь иногда легонько шлепает по заднице.
[Торрент-статистика]
[Профиль]  [ЛС] 
Показать сообщения:    
Ответить на тему

Текущее время: Сегодня 17:00

Часовой пояс: GMT + 4



Вы не можете начинать темы
Вы не можете отвечать на сообщения
Вы не можете редактировать свои сообщения
Вы не можете удалять свои сообщения
Вы не можете голосовать в опросах
Вы не можете прикреплять файлы к сообщениям
Вы не можете скачивать файлы