Другой мир 1,2,3,4,5 / Underworld 1,2,3,4,5 (Лен Уайзман / Len Wiseman, Патрик Татопулос / Patrick Tatopoulos, Монс Морлинд / Mans Marlind, Бьёрн Стейн / Bjorn Stein, Анна Ферстер / Anna Foerster) [2003-2016, Фантастика, боевик, триллер, BDRip] Dub

Ответить на тему
 
Автор
Сообщение

Волк ®

Пол:

Стаж: 6 лет 11 месяцев

Сообщений: 695

Репутация: 300 [+] [-]

Откуда: Армения

Пост 01-Окт-2018 21:55

[Цитировать] 

Другой мир / Underworld
«Пенталогия»
- -

Другой мир / Underworld

Другой мир / Underworld
«Во время финальной битвы вампиров и оборотней на чьей стороне будете Вы?»
- Год выпуска: 2003
Выпущено: США, Германия, Великобритания, Венгрия / Lakeshore Entertainment
Жанр: фэнтези, боевик, триллер
Продолжительность: 02:01:13
Перевод: Профессиональный (полное дублирование) BD CEE |Лицензия|
Субтитры: Русские, Английские (внешние .srt*)
Оригинальная аудиодорожка: Английская-Режиссер:
Лен Уайзман / Len Wiseman-В ролях:
Кейт Бекинсейл (Selene), Скотт Спидман (Michael Corvin), Майкл Шин (Lucian), Шэйн Бролли (Kraven), Билл Найи (Viktor), Эрвин Ледер (Singe), София Майлс (Erika), Робби Ги (Kahn), Вентворт Миллер (Dr. Adam Lockwood), Кевин Гревье (Raze), Зита Горог (Amelia)-Описание:
Столетиями властители царства мрака, вампиры и оборотни ведут беспощадную войну, невидимую человеческому взору. Бесстрашная Селина, воин-вампир, каждую ночь истребляет оборотней, влекомая неутолимой жаждой мести. Ее клан уверен, что вампирам удалось одержать верх над заклятыми врагами, но Селина подозревает, что у оборотней есть тайный план, сулящий гибель ее роду.
В центре этого плана — смертный парень Майкл. Его генетический код — ключ к созданию сверхсущества, которое будет бессмертно и неуязвимо. Теперь Селина должна любой ценой первой добраться до него, чтобы определить исход вечного противостояния двух могущественных рас, которых люди до сих пор считали мифом…-| IMDB | КиноПоиск |-Качество: BDRip [Blu-ray Disc]
Формат: AVI
Видео: 720x304 (2.37:1), 23.976 fps, XviD build 73 ~1265 kbps avg, 0.24 bit/pixel
Аудио: 48 kHz, AC3 Dolby Digital, 3/2 (L,C,R,l,r) + LFE ch, ~448.00 kbps avg (RUS)-(1.46)-Аудио #2: 48 kHz, AC3 Dolby Digital, 3/2 (L,C,R,l,r) + LFE ch, ~448.00 kbps avg (ENG) отдельно
-

Скриншоты

-

MediaInfo

Код:
General
Complete name                            : D:\Drugoy_mir_2003_BDRip_[Theatrical Cut]_by_Dalemake.avi
Format                                   : AVI
Format/Info                              : Audio Video Interleave
File size                                : 1.46 GiB
Duration                                 : 2h 1mn
Overall bit rate                         : 1 723 Kbps
Writing application                      : VirtualDubMod 1.5.10.3 | www.virtualdub-fr.org || (build 2550/release)
Writing library                          : VirtualDubMod build 2550/release
Video
ID                                       : 0
Format                                   : MPEG-4 Visual
Format profile                           : Advanced Simple@L5
Format settings, BVOP                    : 1
Format settings, QPel                    : No
Format settings, GMC                     : No warppoints
Format settings, Matrix                  : Custom
Codec ID                                 : XVID
Codec ID/Hint                            : XviD
Duration                                 : 2h 1mn
Bit rate                                 : 1 266 Kbps
Width                                    : 720 pixels
Height                                   : 304 pixels
Display aspect ratio                     : 2.35:1
Frame rate                               : 23.976 fps
Color space                              : YUV
Chroma subsampling                       : 4:2:0
Bit depth                                : 8 bits
Scan type                                : Progressive
Compression mode                         : Lossy
Bits/(Pixel*Frame)                       : 0.241
Stream size                              : 1.07 GiB (73%)
Writing library                          : XviD 73
Audio
ID                                       : 1
Format                                   : AC-3
Format/Info                              : Audio Coding 3
Mode extension                           : CM (complete main)
Format settings, Endianness              : Big
Codec ID                                 : 2000
Duration                                 : 2h 1mn
Bit rate mode                            : Constant
Bit rate                                 : 448 Kbps
Channel(s)                               : 6 channels
Channel positions                        : Front: L C R, Side: L R, LFE
Sampling rate                            : 48.0 KHz
Bit depth                                : 16 bits
Compression mode                         : Lossy
Stream size                              : 388 MiB (26%)
Alignment                                : Split accross interleaves
Interleave, duration                     : 42 ms (1.00 video frame)
Interleave, preload duration             : 500 ms

Другой мир 2: Эволюция / Underworld: Evolution

Другой мир 2: Эволюция / Underworld: Evolution
«Новая глава. Новая раса. Новая битва»
- Год выпуска: 2005
Выпущено: США / Lakeshore Entertainment, Screen Gems Inc.
Жанр: фантастика, фэнтези, боевик, триллер
Продолжительность: 01:46:21
Перевод: Профессиональный (полное дублирование) BD CEE |Лицензия|
Субтитры: Русские, Английские (внешние .srt*)
Оригинальная аудиодорожка: Английская-Режиссер:
Лен Уайзман / Len Wiseman-В ролях:
Кейт Бекинсейл (Selene), Скотт Спидман (Michael), Тони Карран (Marcus), Дерек Джекоби (Corvinus), Билл Найи (Viktor), Стивен Макинтош (Tanis), Шэйн Бролли (Kraven), Брайан Стил (William), Зита Горог (Amelia), Скотт МакЭлрой (Soren)-Описание:
В зловещем ночном мире, скрытом от взора простых смертных, не утихает беспощадная борьба между двумя кланами властителей мрака — вампирами и оборотнями. Настала пора узнать об истоках вековой вражды, ставшей для вампира-воительницы Селин и Майкла, полуоборотня-получеловека, проклятьем и смыслом существования.
Сражаясь с могущественными врагами из обоих кланов, древними магистрами смерти, они познают кровавую интригу и запретную любовь, чтобы в сумраке ночи раскрыть тайну своего происхождения и своего наследия. Их ждет великая битва, которая покончит с вечным противостоянием — последняя схватка ради окончания всех войн, в которой бессмертные должны понести кару и расплатиться за свои злодеяния…-| IMDB | КиноПоиск |-Качество: BDRip [Blu-ray Disc]
Формат: AVI
Видео: 720x304 (2.37:1), 23.976 fps, XviD build 73 ~1505 kbps avg, 0.29 bit/pixel
Аудио: 48 kHz, AC3 Dolby Digital, 3/2 (L,C,R,l,r) + LFE ch, ~448.00 kbps avg (RUS)-(1.46)-Аудио #2: 48 kHz, AC3 Dolby Digital, 3/2 (L,C,R,l,r) + LFE ch, ~448.00 kbps avg (ENG) отдельно
-

Скриншоты

-

MediaInfo

Код:
General
Complete name                            : D:\Drugoy_mir_2_Evoluciya_2005_BDRip_by_Dalemake.avi
Format                                   : AVI
Format/Info                              : Audio Video Interleave
File size                                : 1.46 GiB
Duration                                 : 1h 46mn
Overall bit rate                         : 1 963 Kbps
Writing application                      : VirtualDubMod 1.5.10.3 | www.virtualdub-fr.org || (build 2550/release)
Writing library                          : VirtualDubMod build 2550/release
Video
ID                                       : 0
Format                                   : MPEG-4 Visual
Format profile                           : Advanced Simple@L5
Format settings, BVOP                    : 1
Format settings, QPel                    : No
Format settings, GMC                     : No warppoints
Format settings, Matrix                  : Custom
Codec ID                                 : XVID
Codec ID/Hint                            : XviD
Duration                                 : 1h 46mn
Bit rate                                 : 1 506 Kbps
Width                                    : 720 pixels
Height                                   : 304 pixels
Display aspect ratio                     : 2.35:1
Frame rate                               : 23.976 fps
Color space                              : YUV
Chroma subsampling                       : 4:2:0
Bit depth                                : 8 bits
Scan type                                : Progressive
Compression mode                         : Lossy
Bits/(Pixel*Frame)                       : 0.287
Stream size                              : 1.12 GiB (77%)
Writing library                          : XviD 73
Audio
ID                                       : 1
Format                                   : AC-3
Format/Info                              : Audio Coding 3
Mode extension                           : CM (complete main)
Format settings, Endianness              : Big
Codec ID                                 : 2000
Duration                                 : 1h 46mn
Bit rate mode                            : Constant
Bit rate                                 : 448 Kbps
Channel(s)                               : 6 channels
Channel positions                        : Front: L C R, Side: L R, LFE
Sampling rate                            : 48.0 KHz
Bit depth                                : 16 bits
Compression mode                         : Lossy
Stream size                              : 341 MiB (23%)
Alignment                                : Split accross interleaves
Interleave, duration                     : 42 ms (1.00 video frame)
Interleave, preload duration             : 500 ms

Другой мир: Восстание ликанов / Underworld: Rise of the Lycans

Другой мир: Восстание ликанов / Underworld: Rise of the Lycans
«У каждой войны есть начало»
- Год выпуска: 2008
Выпущено: США, Новая Зеландия / Lakeshore Entertainment, Screen Gems Inc.
Жанр: фантастика, фэнтези, боевик, триллер, приключения
Продолжительность: 01:32:28
Перевод: Профессиональный (полное дублирование) BD CEE |Лицензия|
Субтитры: Русские, Английские (внешние .srt*)
Оригинальная аудиодорожка: Английская-Режиссер:
Патрик Татопулос / Patrick Tatopoulos-В ролях:
Майкл Шин (Lucian), Билл Найи (Viktor), Рона Митра (Sonja), Стивен Макинтош (Tannis), Кевин Гревье (Raze), Дэвид Эстон (Coloman), Джеральдин Брофи (Nobleman's Wife), Лейтон Кардно (Fearful Lycan), Алекс Кэрролл (Young Lucian), Элизабет Хоторн (Orsova)-Описание:
История, прослеживающая происхождение вековой кровной мести, между аристократическими вампирами, известными как Торговцы смертью и их рабами. Молодой ликан по имени Люциан — мощный лидер, который сплачивает оборотней, чтобы выступить против Виктора, жестокого короля вампиров, который поработил их. К Люциану присоединяется Соня, и помогает ему в его борьбе против смертоносной армии торговцев смертью и борьбе за свободу ликанов.-| IMDB | КиноПоиск |-Качество: BDRip [Blu-ray Disc]
Формат: AVI
Видео: 720x304 (2.37:1), 23.976 fps, XviD build 73 ~1798 kbps avg, 0.34 bit/pixel
Аудио: 48 kHz, AC3 Dolby Digital, 3/2 (L,C,R,l,r) + LFE ch, ~448.00 kbps avg (RUS)-(1.46)-Аудио #2: 48 kHz, AC3 Dolby Digital, 3/2 (L,C,R,l,r) + LFE ch, ~448.00 kbps avg (ENG) отдельно
-

Скриншоты

-

MediaInfo

Код:
General
Complete name                            : D:\Drugoy_mir_Vosstanie_likanov_2008_BDRip_by_Dalemake.avi
Format                                   : AVI
Format/Info                              : Audio Video Interleave
File size                                : 1.46 GiB
Duration                                 : 1h 32mn
Overall bit rate                         : 2 256 Kbps
Writing application                      : VirtualDubMod 1.5.10.3 | www.virtualdub-fr.org || (build 2550/release)
Writing library                          : VirtualDubMod build 2550/release
Video
ID                                       : 0
Format                                   : MPEG-4 Visual
Format profile                           : Advanced Simple@L5
Format settings, BVOP                    : 1
Format settings, QPel                    : No
Format settings, GMC                     : No warppoints
Format settings, Matrix                  : Custom
Codec ID                                 : XVID
Codec ID/Hint                            : XviD
Duration                                 : 1h 32mn
Bit rate                                 : 1 798 Kbps
Width                                    : 720 pixels
Height                                   : 304 pixels
Display aspect ratio                     : 2.35:1
Frame rate                               : 23.976 fps
Color space                              : YUV
Chroma subsampling                       : 4:2:0
Bit depth                                : 8 bits
Scan type                                : Progressive
Compression mode                         : Lossy
Bits/(Pixel*Frame)                       : 0.343
Stream size                              : 1.16 GiB (80%)
Writing library                          : XviD 73
Audio
ID                                       : 1
Format                                   : AC-3
Format/Info                              : Audio Coding 3
Mode extension                           : CM (complete main)
Format settings, Endianness              : Big
Codec ID                                 : 2000
Duration                                 : 1h 32mn
Bit rate mode                            : Constant
Bit rate                                 : 448 Kbps
Channel(s)                               : 6 channels
Channel positions                        : Front: L C R, Side: L R, LFE
Sampling rate                            : 48.0 KHz
Bit depth                                : 16 bits
Compression mode                         : Lossy
Stream size                              : 296 MiB (20%)
Alignment                                : Split accross interleaves
Interleave, duration                     : 42 ms (1.00 video frame)
Interleave, preload duration             : 500 ms

Другой мир: Пробуждение / Underworld: Awakening

Другой мир: Пробуждение / Underworld: Awakening
«Месть проснулась»
- Год выпуска: 2012
Выпущено: США / Lakeshore Entertainment, Screen Gems
Жанр: ужасы, фэнтези, боевик
Продолжительность: 01:28:34
Перевод: Профессиональный (полное дублирование) BD CEE |Лицензия|
Субтитры: Русские, Английские (внешние .srt*)
Оригинальная аудиодорожка: Английская-Режиссер:
Монс Морлинд / Måns Mårlind, Бьёрн Стейн / Björn Stein-В ролях:
Кейт Бекинсейл (Selene), Стивен Ри (Dr. Jacob Lane), Майкл Или (Detective Sebastian), Тео Джеймс (David), Индиа Айсли (Eve), Чарльз Дэнс (Thomas), Сандрин Холт (Lida), Кристен Холден-Рид (Quint), Джейкоб Блэр (Officer Kolb), Адам Рейд (Med Tech #1), Кэтлин Адамс (Olivia)-Описание:
Человечество обнаружило существование вампиров и ликанов и начинает войну, чтобы уничтожить эти расы. Селин прорывается к пирсу, где её ждет Майкл для того чтобы вместе отплыть на корабле и скрыться ото всех. Но у пирса их ждет засада. Взрыв гранаты разбрасывает Селин и Майкла в разные стороны. 12 лет спустя Селин просыпается от криогенного сна в лаборатории и узнает о существовании родной дочери Евы — гибрида вампира и ликана. Теперь Селин нужно защитить Еву от ликанов, которые намерены использовать ее, чтобы устранить у своего вида уязвимость от серебра…-| IMDB | КиноПоиск |-Качество: BDRip [Blu-ray Disc]
Формат: AVI
Видео: 720x304 (2.37:1), 23.976 fps, XviD build 73 ~1899 kbps avg, 0.36 bit/pixel
Аудио: 48 kHz, AC3 Dolby Digital, 3/2 (L,C,R,l,r) + LFE ch, ~448.00 kbps avg (RUS)-(1.46)-Аудио #2: 48 kHz, AC3 Dolby Digital, 3/2 (L,C,R,l,r) + LFE ch, ~448.00 kbps avg (ENG) отдельно
-

Скриншоты

-

MediaInfo

Код:
General
Complete name                            : D:\Drugoy_mir_4_Probuzhdenie_2012_BDRip_by_Dalemake.avi
Format                                   : AVI
Format/Info                              : Audio Video Interleave
File size                                : 1.46 GiB
Duration                                 : 1h 28mn
Overall bit rate                         : 2 357 Kbps
Writing application                      : VirtualDubMod 1.5.10.3 | www.virtualdub-fr.org || (build 2550/release)
Writing library                          : VirtualDubMod build 2550/release
Video
ID                                       : 0
Format                                   : MPEG-4 Visual
Format profile                           : Advanced Simple@L5
Format settings, BVOP                    : 1
Format settings, QPel                    : No
Format settings, GMC                     : No warppoints
Format settings, Matrix                  : Custom
Codec ID                                 : XVID
Codec ID/Hint                            : XviD
Duration                                 : 1h 28mn
Bit rate                                 : 1 900 Kbps
Width                                    : 720 pixels
Height                                   : 304 pixels
Display aspect ratio                     : 2.35:1
Frame rate                               : 23.976 fps
Color space                              : YUV
Chroma subsampling                       : 4:2:0
Bit depth                                : 8 bits
Scan type                                : Progressive
Compression mode                         : Lossy
Bits/(Pixel*Frame)                       : 0.362
Stream size                              : 1.18 GiB (81%)
Writing library                          : XviD 73
Audio
ID                                       : 1
Format                                   : AC-3
Format/Info                              : Audio Coding 3
Mode extension                           : CM (complete main)
Format settings, Endianness              : Big
Codec ID                                 : 2000
Duration                                 : 1h 28mn
Bit rate mode                            : Constant
Bit rate                                 : 448 Kbps
Channel(s)                               : 6 channels
Channel positions                        : Front: L C R, Side: L R, LFE
Sampling rate                            : 48.0 KHz
Bit depth                                : 16 bits
Compression mode                         : Lossy
Stream size                              : 284 MiB (19%)
Alignment                                : Split accross interleaves
Interleave, duration                     : 42 ms (1.00 video frame)
Interleave, preload duration             : 500 ms

Другой мир: Войны крови / Underworld: Blood Wars

Другой мир: Войны крови / Underworld: Blood Wars- Год выпуска: 2016
Выпущено: США / Lakeshore Entertainment, Screen Gems
Жанр: ужасы, фэнтези, боевик
Продолжительность: 01:31:32
Перевод: Профессиональный (полное дублирование) BD CEE |Лицензия|
Субтитры: Русские, Английские (внешние .srt*)
Оригинальная аудиодорожка: Английская-Режиссер:
Анна Ферстер / Anna Foerster-В ролях:
Кейт Бекинсейл (Selene), Тео Джеймс (David), Тобайас Мензис (Marius), Лара Пулвер (Semira), Чарльз Дэнс (Thomas), Джеймс Фолкнер (Cassius), Петер Андерссон (Vidar), Клементайн Николсон (Lena), Брэдли Джеймс (Varga), Дэйзи Хэд (Alexia)-Описание:
Воительница-вампир Селена вступает в свой последний и решающий бой между оборотнями и кланом вампиров, который её предал.-| IMDB | КиноПоиск | Сэмпл |-Качество: BDRip [Blu-ray Disc]
Формат: AVI
Видео: 720x304 (2.37:1), 23.976 fps, XviD build 67 ~1821 kbps avg, 0.35 bit/pixel
Аудио: 48 kHz, AC3 Dolby Digital, 3/2 (L,C,R,l,r) + LFE ch, ~448.00 kbps avg (RUS)-(1.46)-Аудио #2: 48 kHz, AC3 Dolby Digital, 3/2 (L,C,R,l,r) + LFE ch, ~448.00 kbps avg (ENG) отдельно
-

Скриншоты

-

MediaInfo

Код:
Общее
Полное имя                               : D:\Drugoy_mir_5_Voiny_krovi_2016_BDRip_by_Dalemake.avi
Формат                                   : AVI
Формат/Информация                        : Audio Video Interleave
Размер файла                             : 1,46 Гбайт
Продолжительность                        : 1 ч. 31 м.
Общий поток                              : 2279 Кбит/сек
Программа кодирования                    : VirtualDubMod 1.5.10.3 | www.virtualdub-fr.org || (build 2550/release)
Библиотека кодирования                   : VirtualDubMod build 2550/release
Видео
Идентификатор                            : 0
Формат                                   : MPEG-4 Visual
Профиль формата                          : Advanced Simple@L5
Параметр BVOP формата                    : 1
Параметр QPel формата                    : Нет
Параметр GMC формата                     : Без точки перехода
Параметр матрицы формата                 : Выборочная
Идентификатор кодека                     : XVID
Идентификатор кодека/Подсказка           : XviD
Продолжительность                        : 1 ч. 31 м.
Битрейт                                  : 1822 Кбит/сек
Ширина                                   : 720 пикселей
Высота                                   : 304 пикселя
Соотношение сторон                       : 2,35:1
Частота кадров                           : 23,976 кадра/сек
Цветовое пространство                    : YUV
Субдискретизация насыщенности            : 4:2:0
Битовая глубина                          : 8 бит
Тип развёртки                            : Прогрессивная
Метод сжатия                             : С потерями
Бит/(Пиксели*Кадры)                      : 0.347
Размер потока                            : 1,16 Гбайт (80%)
Библиотека кодирования                   : XviD 67
Аудио
Идентификатор                            : 1
Формат                                   : AC-3
Формат/Информация                        : Audio Coding 3
Расширение режима                        : CM (complete main)
Параметр Endianness формата              : Big
Идентификатор кодека                     : 2000
Продолжительность                        : 1 ч. 31 м.
Вид битрейта                             : Постоянный
Битрейт                                  : 448 Кбит/сек
Каналы                                   : 6 каналов
Расположение каналов                     : Front: L C R, Side: L R, LFE
Частота                                  : 48,0 КГц
Битовая глубина                          : 16 бит
Метод сжатия                             : С потерями
Размер потока                            : 293 Мбайт (20%)
Выравнивание                             : Разделение по промежуткам
Продолжительность промежутка             : 42  мс. (1,00 видеокадр)
Время предзагрузки промежутка            : 500  мс.
-
[Торрент-статистика]
[Профиль]  [ЛС] 
Показать сообщения:    
Ответить на тему

Текущее время: Сегодня 08:53

Часовой пояс: GMT + 4



Вы не можете начинать темы
Вы не можете отвечать на сообщения
Вы не можете редактировать свои сообщения
Вы не можете удалять свои сообщения
Вы не можете голосовать в опросах
Вы не можете прикреплять файлы к сообщениям
Вы не можете скачивать файлы