Убийца / Sicario (Дени Вильнёв / Denis Villeneuve) [2015, США, боевик, триллер, драма, криминал, детектив, BDRip] Dub + Original Eng + Sub Rus, Eng

Ответить на тему
 
Автор
Сообщение

Волк ®

Пол:

Стаж: 6 лет 11 месяцев

Сообщений: 695

Репутация: 300 [+] [-]

Откуда: Армения

Пост 23-Сен-2018 18:29

[Цитировать] 

Убийца / Sicario- Год выпуска: 2015
Страна: США
Жанр: боевик, триллер, драма, криминал, детектив
Продолжительность: 02:01:20
Перевод: Профессиональный (дублированный) iTunes
Субтитры: русские (Воронин), английские
Оригинальная аудиодорожка: английский-Режиссер: Дени Вильнёв / Denis Villeneuve-В ролях: Эмили Блант, Бенисио Дель Торо, Джош Бролин, Виктор Гарбер, Джон Бернтал, Дэниэл Калуя, Джеффри Донован, Рауль Трухильо, Хулио Седильо, Хэнк Роджерсон.-Описание: Безлюдные пустоши, по которым проходит граница между Мексикой и США, — это территория без правил, поле битвы между мексиканскими наркокартелями и американскими спецслужбами. Агент ФБР Кейт Мэйсер, которая работает в приграничных районах, старается придерживаться собственных идеалов, хотя и начинает ощущать, что исход войны с наркотрафиком складывается не в пользу служителей закона.
Однажды ей предоставляется шанс принять участие в работе элитного подразделения по борьбе с наркотиками, возглавляемого агентом Мэттом Грейвером. Самый загадочный участник команды — местный консультант, человек без имени, привычек, и, кажется, без прошлого. Его истинное лицо откроется только в ходе рискованной операции, во время которой Кейт будет вынуждена поступиться собственными принципами, чтобы остаться в живых.-Рейтинг
kinopoisk.ru 7.036 (35 700)
imdb.com 7.60 (213 258)
-Качество видео: BDRip
Формат видео: AVI | Sample
Видео: 720x304 (2.37:1), 23.976 fps, XviD build 73 ~1801 kbps avg, 0.34 bit/pixel
Аудио 1: 48 kHz, AC3 Dolby Digital, 3/2 (L,C,R,l,r) + LFE ch, ~384.00 kbps avg | RUS
Аудио 2: 48 kHz, AC3 Dolby Digital, 3/2 (L,C,R,l,r) + LFE ch, ~384.00 kbps avg | ENG

Инфо

Формат : AVI
Формат/Информация : Audio Video Interleave
Профиль формата : OpenDML
Размер файла : 2,19 Гбайт
Продолжительность : 2 ч. 1 м.
Общий поток : 2586 Кбит/сек
Название фильма : Убийца / Sicario (2015)
Программа кодирования : VirtualDubMod 1.5.10.2 (build 2540/release)
Библиотека кодирования : VirtualDubMod build 2540/release
Примечание : BDRip by Seven
Видео
Идентификатор : 0
Формат : MPEG-4 Visual
Профиль формата : Advanced Simple@L5
Параметр BVOP формата : 1
Параметр QPel формата : Нет
Параметр GMC формата : Без точки перехода
Параметр матрицы формата : Выборочная
Идентификатор кодека : XVID
Идентификатор кодека/Подсказка : XviD
Продолжительность : 2 ч. 1 м.
Битрейт : 1801 Кбит/сек
Ширина : 720 пикселей
Высота : 304 пикселя
Соотношение сторон : 2,35:1
Частота кадров : 23,976 (23976/1000) кадра/сек
Цветовое пространство : YUV
Субдискретизация насыщенности : 4:2:0
Битовая глубина : 8 бит
Тип развёртки : Прогрессивная
Метод сжатия : С потерями
Бит/(Пиксели*Кадры) : 0.343
Размер потока : 1,53 Гбайт (70%)
Библиотека кодирования : XviD 73
Аудио #1
Идентификатор : 1
Формат : AC-3
Формат/Информация : Audio Coding 3
Расширение режима : CM (complete main)
Параметр Endianness формата : Big
Идентификатор кодека : 2000
Продолжительность : 2 ч. 1 м.
Вид битрейта : Постоянный
Битрейт : 384 Кбит/сек
Каналы : 6 каналов
Расположение каналов : Front: L C R, Side: L R, LFE
Частота : 48,0 КГц
Частота кадров : 31,250 кадров/сек (1536 spf)
Метод сжатия : С потерями
Размер потока : 333 Мбайт (15%)
Выравнивание : Разделение по промежуткам
Продолжительность промежутка : 42 мс. (1,00 видеокадр)
Время предзагрузки промежутка : 500 мс.
Аудио #2
Идентификатор : 2
Формат : AC-3
Формат/Информация : Audio Coding 3
Расширение режима : CM (complete main)
Параметр Endianness формата : Big
Идентификатор кодека : 2000
Продолжительность : 2 ч. 1 м.
Вид битрейта : Постоянный
Битрейт : 384 Кбит/сек
Каналы : 6 каналов
Расположение каналов : Front: L C R, Side: L R, LFE
Частота : 48,0 КГц
Частота кадров : 31,250 кадров/сек (1536 spf)
Метод сжатия : С потерями
Размер потока : 333 Мбайт (15%)
Выравнивание : Разделение по промежуткам
Продолжительность промежутка : 42 мс. (1,00 видеокадр)
Время предзагрузки промежутка : 500 мс.

Скриншоты

[Торрент-статистика]
[Профиль]  [ЛС] 
Показать сообщения:    
Ответить на тему

Текущее время: Сегодня 06:14

Часовой пояс: GMT + 4



Вы не можете начинать темы
Вы не можете отвечать на сообщения
Вы не можете редактировать свои сообщения
Вы не можете удалять свои сообщения
Вы не можете голосовать в опросах
Вы не можете прикреплять файлы к сообщениям
Вы не можете скачивать файлы