Лето 84 / Summer of 84 (Франсуа Симар / Francois Simard, Анук Висселл / Anouk Whissell, Йоанн-Карл Висселль / Yoann-Karl Whissell) [2018, США, ужасы, триллер, драма, детектив, WEB-DLRip-AVC] MVO (HDRezka Studio) + Original (Eng) + Sub (Rus, Eng)

Ответить на тему
 
Автор
Сообщение

Волк ®

Пол:

Стаж: 7 лет

Сообщений: 695

Репутация: 300 [+] [-]

Откуда: Армения

Пост 12-Сен-2018 20:59

[Цитировать] 

Лето 84 / Summer of 84- Год выхода: 2018
Выпущено: Канада, США / Brightlight Pictures Inc.
Жанр: ужасы, триллер, драма, детектив
Продолжительность: 01:45:31
Перевод: Любительский (многоголосый закадровый) HDRezka Studio
Субтитры: Русские, Английские
Оригинальная аудиодорожка: Английская
Навигация по главам: Есть (10 глав)-Режиссер:
Франсуа Симар / Francois Simard, Анук Висселл / Anouk Whissell, Йоанн-Карл Висселль / Yoann-Karl Whissell-В ролях:
Грэм Верчир, Джуда Льюис, Калеб Эмери, Кори Грютер-Эндрю, Тиера Сковбай, Рич Соммер, Джейсон Грей-Стенфорд, Шона Йоханнесен, Марк Брэндон, Дж. Алекс Бринсон-О фильме:
Четверо 15-летних друзей проводят лето 1984 года за необычным занятием: они вычисляют серийного убийцу, несколько лет подряд орудующего в округе. Все улики ведут к соседскому дому, где живёт уважаемый офицер полиции.-| IMDB | КиноПоиск | Сэмпл |-Качество: WEB-DLRip-AVC [Summer.of.84.2018.1080p.AMZN.WEBRip.DDP5.1.x264-NTG]
Формат: MKV
Видео: 1152x482 (2,40:1), 23.976 fps, x264 ~1749 kbps avg, 0.131 bit/pixel
Аудио #1: 48 kHz, AC3 Dolby Digital, 2/0 (L,R) ch, ~192 kbps avg (RUS) - HDRezka Studio
Аудио #2: 48 kHz, AC3 Dolby Digital, 2/0 (L,R) ch, ~192 kbps avg (ENG)
Формат субтитров: Softsub (.srt*)
-

Скриншоты

-

MediaInfo

Код:
Общее
Полное имя                               : D:\Leto_84_2018_WEB-DLRip-AVC_MVO_by_Dalemake.mkv
Формат                                   : Matroska
Версия формата                           : Version 4 / Version 2
Размер файла                             : 1,60 Гбайт
Продолжительность                        : 1 ч. 45 м.
Общий поток                              : 2177 Кбит/сек
Название фильма                          : [Summer_of_84_2018_All Films_by Dalemake]
Дата кодирования                         : UTC 2018-09-02 08:02:11
Программа кодирования                    : mkvmerge v7.8.0 ('River Man') 32bit built on Apr  3 2015 12:11:22
Библиотека кодирования                   : libebml v1.3.1 + libmatroska v1.4.2
DURATION                                 : 01:40:44.130000000
NUMBER_OF_FRAMES                         : 1604
NUMBER_OF_BYTES                          : 75304
_STATISTICS_WRITING_APP                  : mkvmerge v7.8.0 ('River Man') 32bit built on Apr  3 2015 12:11:22
_STATISTICS_WRITING_DATE_UTC             : 2018-09-02 08:02:11
_STATISTICS_TAGS                         : BPS DURATION NUMBER_OF_FRAMES NUMBER_OF_BYTES
Видео
Идентификатор                            : 1
Формат                                   : AVC
Формат/Информация                        : Advanced Video Codec
Профиль формата                          : High@L4.1
Параметр CABAC формата                   : Да
Параметр ReFrames формата                : 12 кадров
Идентификатор кодека                     : V_MPEG4/ISO/AVC
Продолжительность                        : 1 ч. 45 м.
Битрейт                                  : 1749 Кбит/сек
Ширина                                   : 1152 пикселя
Высота                                   : 482 пикселя
Соотношение сторон                       : 2,40:1
Частота кадров                           : 23,976 кадра/сек
Цветовое пространство                    : YUV
Субдискретизация насыщенности            : 4:2:0
Битовая глубина                          : 8 бит
Тип развёртки                            : Прогрессивная
Бит/(Пиксели*Кадры)                      : 0.131
Размер потока                            : 1,29 Гбайт (80%)
Заголовок                                : [Summer_of_84_2018_All Films_by Dalemake]
Библиотека кодирования                   : x264 core 152 r2851kMod ba24899
Настройки программы                      : cabac=1 / ref=12 / deblock=1:-2:-2 / analyse=0x3:0x133 / me=umh / subme=10 / psy=1 / fade_compensate=0.00 / psy_rd=1.00:0.00 / mixed_ref=1 / me_range=48 / chroma_me=1 / trellis=2 / 8x8dct=1 / cqm=0 / deadzone=21,11 / fast_pskip=1 / chroma_qp_offset=-4 / threads=6 / lookahead_threads=1 / sliced_threads=0 / nr=0 / decimate=0 / interlaced=0 / bluray_compat=0 / constrained_intra=0 / bframes=11 / b_pyramid=2 / b_adapt=2 / b_bias=0 / direct=1 / weightb=1 / open_gop=0 / weightp=2 / keyint=240 / keyint_min=23 / scenecut=40 / intra_refresh=0 / rc_lookahead=60 / rc=crf / mbtree=0 / crf=18.9000 / qcomp=0.60 / qpmin=0 / qpmax=69 / qpstep=4 / vbv_maxrate=50000 / vbv_bufsize=62500 / crf_max=0.0 / nal_hrd=none / filler=0 / ip_ratio=1.40 / pb_ratio=1.35 / aq=1:1.00
Default                                  : Да
Forced                                   : Нет
Аудио #1
Идентификатор                            : 2
Формат                                   : AC-3
Формат/Информация                        : Audio Coding 3
Расширение режима                        : CM (complete main)
Параметр Endianness формата              : Big
Идентификатор кодека                     : A_AC3
Продолжительность                        : 1 ч. 45 м.
Вид битрейта                             : Постоянный
Битрейт                                  : 192 Кбит/сек
Каналы                                   : 2 канала
Расположение каналов                     : Front: L R
Частота                                  : 48,0 КГц
Битовая глубина                          : 16 бит
Метод сжатия                             : С потерями
Размер потока                            : 145 Мбайт (9%)
Заголовок                                : MVO - HDRezka Studio
Язык                                     : Russian
Default                                  : Да
Forced                                   : Нет
Аудио #2
Идентификатор                            : 3
Формат                                   : AC-3
Формат/Информация                        : Audio Coding 3
Расширение режима                        : CM (complete main)
Параметр Endianness формата              : Big
Идентификатор кодека                     : A_AC3
Продолжительность                        : 1 ч. 45 м.
Вид битрейта                             : Постоянный
Битрейт                                  : 192 Кбит/сек
Каналы                                   : 2 канала
Расположение каналов                     : Front: L R
Частота                                  : 48,0 КГц
Битовая глубина                          : 16 бит
Метод сжатия                             : С потерями
Размер потока                            : 145 Мбайт (9%)
Заголовок                                : Original
Язык                                     : English
Default                                  : Нет
Forced                                   : Нет
Текст #1
Идентификатор                            : 4
Формат                                   : UTF-8
Идентификатор кодека                     : S_TEXT/UTF8
Идентификатор кодека/Информация          : UTF-8 Plain Text
Заголовок                                : Full
Язык                                     : Russian
Default                                  : Нет
Forced                                   : Нет
Текст #2
Идентификатор                            : 5
Формат                                   : UTF-8
Идентификатор кодека                     : S_TEXT/UTF8
Идентификатор кодека/Информация          : UTF-8 Plain Text
Заголовок                                : Full
Язык                                     : English
Default                                  : Нет
Forced                                   : Нет
Меню
00:00:00.000                             : en:1
00:12:31.000                             : en:2
00:24:23.000                             : en:3
00:37:18.000                             : en:4
00:45:56.000                             : en:5
00:57:26.000                             : en:6
01:06:18.000                             : en:7
01:17:51.000                             : en:8
01:26:43.000                             : en:9
01:41:04.000                             : en:10
-
[Торрент-статистика]
[Профиль]  [ЛС] 
Показать сообщения:    
Ответить на тему

Текущее время: Сегодня 21:55

Часовой пояс: GMT + 4



Вы не можете начинать темы
Вы не можете отвечать на сообщения
Вы не можете редактировать свои сообщения
Вы не можете удалять свои сообщения
Вы не можете голосовать в опросах
Вы не можете прикреплять файлы к сообщениям
Вы не можете скачивать файлы