Жажда смерти / Death Wish (Элай Рот / Eli Roth) [2018, США, боевик, триллер, криминал, BDRip-AVC] Dub

Ответить на тему
 
Автор
Сообщение

Волк ®

Пол:

Стаж: 6 лет 10 месяцев

Сообщений: 689

Репутация: 300 [+] [-]

Откуда: Армения

Пост 12-Сен-2018 20:56

[Цитировать] 

-Жажда смерти / Death Wish-«Он мстит бодро, весело и со вкусом»- -Страна: США
Жанр: боевик, триллер, криминал
Год выпуска: 2018
Продолжительность: 01:46:43-Перевод: Профессиональный (дублированный) iTunes
Субтитры: нет
Оригинальная аудиодорожка: нет-Режиссер: Элай Рот / Eli Roth-В ролях: Брюс Уиллис, Винсент Д'Онофрио, Элизабет Шу, Камила Морроне, Дин Норрис, Бо Напп, Кимберли Элиз, Лен Кариу, Джек Кеси, Ронни Джин Блевинс-Описание: Пол Керси - хирург, привыкший вытаскивать людей с того света после криминальных разборок. Но после того, как его жена и дочь становятся жертвами уличной банды, а полиция бездействует, он берет карающий меч правосудия в свои руки. Видео изобретательных убийств преступников покоряют интернет-топы, а среди жителей города расходятся слухи о неуловимом народном мстителе, которому теперь принадлежит весь город. Он мстит бодро, весело и со вкусом.- -Качество видео: BDRip-AVC / Death.Wish.2018.REMUX.BluRay.1080p.AVC.DTS-HD.MA5.1-iFT
Формат видео: MKV-Видео: MPEG-4 AVC, 930x388 (2.40:1), 23.976 fps, ~1563 kbps avg, 0.181 bit/pixel
Аудио: 48 kHz, AC3 Dolby Digital, 3/2 (L,C,R,l,r) + LFE ch, ~384 kbps avg-

MediaInfo


Код:
Complete name               : D:\Раздача\Жажда смерти (2018) BDRip-AVC_ivanes20031987.mkv
Format                      : Matroska
Format version              : Version 2
File size                   : 1.48 GiB
Duration                    : 1 h 46 min
Overall bit rate            : 1 987 kb/s
Movie name                  : Жажда смерти (2018) BDRip-AVC_ivanes20031987
Encoded date                : UTC 2018-07-04 23:05:47
Writing application         : mkvmerge v4.4.0 ('Die Wiederkehr') сборка от Jan  3 2011 21:40:45
Writing library             : libebml v1.0.0 + libmatroska v1.0.0
Cover                       : Yes
Attachments                 : cover.png
Video
ID                          : 1
Format                      : AVC
Format/Info                 : Advanced Video Codec
Format profile              : High@L4.1
Format settings, CABAC      : Yes
Format settings, RefFrames  : 14 frames
Codec ID                    : V_MPEG4/ISO/AVC
Duration                    : 1 h 46 min
Bit rate                    : 1 563 kb/s
Width                       : 930 pixels
Height                      : 388 pixels
Display aspect ratio        : 2.40:1
Frame rate mode             : Constant
Frame rate                  : 23.976 (24000/1001) FPS
Color space                 : YUV
Chroma subsampling          : 4:2:0
Bit depth                   : 8 bits
Scan type                   : Progressive
Bits/(Pixel*Frame)          : 0.181
Stream size                 : 1.17 GiB (79%)
Title                       : Rip by ivanes20031987
Writing library             : x264 core 155 r2901 7d0ff22
Encoding settings           : cabac=1 / ref=14 / deblock=1:-3:-3 / analyse=0x3:0x113 / me=umh / subme=10 / psy=1 / psy_rd=1.00:0.00 / mixed_ref=1 / me_range=32 / chroma_me=1 / trellis=2 / 8x8dct=1 / cqm=0 / deadzone=21,11 / fast_pskip=0 / chroma_qp_offset=-2 / threads=12 / lookahead_threads=3 / sliced_threads=0 / nr=0 / decimate=0 / interlaced=0 / bluray_compat=0 / constrained_intra=0 / bframes=14 / b_pyramid=2 / b_adapt=2 / b_bias=0 / direct=1 / weightb=1 / open_gop=0 / weightp=2 / keyint=240 / keyint_min=23 / scenecut=40 / intra_refresh=0 / rc_lookahead=60 / rc=crf / mbtree=0 / crf=16.9 / qcomp=0.60 / qpmin=0 / qpmax=69 / qpstep=4 / vbv_maxrate=50000 / vbv_bufsize=62500 / crf_max=0.0 / nal_hrd=none / filler=0 / ip_ratio=1.40 / pb_ratio=1.30 / aq=1:1.00
Default                     : Yes
Forced                      : No
Audio
ID                          : 2
Format                      : AC-3
Format/Info                 : Audio Coding 3
Format settings, Endianness : Big
Codec ID                    : A_AC3
Duration                    : 1 h 46 min
Bit rate mode               : Constant
Bit rate                    : 384 kb/s
Channel(s)                  : 6 channels
Channel positions           : Front: L C R, Side: L R, LFE
Sampling rate               : 48.0 kHz
Frame rate                  : 31.250 FPS (1536 SPF)
Bit depth                   : 16 bits
Compression mode            : Lossy
Stream size                 : 293 MiB (19%)
Title                       : iTunes
Language                    : Russian
Service kind                : Complete Main
Default                     : Yes
Forced                      : No

x264

Код:
x264 [info]: frame I:1375  Avg QP:14.05  size: 53480
x264 [info]: frame P:32793 Avg QP:15.85  size: 18689
x264 [info]: frame B:119366 Avg QP:17.52  size:  4974
x264 [info]: consecutive B-frames:  2.0%  2.8%  7.1% 22.4% 15.5% 37.5%  4.7%  3.9%  1.0%  1.7%  0.5%  0.3%  0.1%  0.1%  0.4%
x264 [info]: mb I  I16..4:  5.0% 71.1% 23.9%
x264 [info]: mb P  I16..4:  1.0%  9.5%  2.5%  P16..4: 33.7% 28.2% 16.4%  0.0%  0.0%    skip: 8.7%
x264 [info]: mb B  I16..4:  0.1%  0.7%  0.3%  B16..8: 33.7% 14.2%  4.0%  direct: 4.7%  skip:42.4%  L0:43.2% L1:42.4% BI:14.4%
x264 [info]: 8x8 transform intra:70.6% inter:52.0%
x264 [info]: coded y,uvDC,uvAC intra: 82.6% 80.6% 66.8% inter: 21.5% 17.6% 9.8%
x264 [info]: i16 v,h,dc,p: 45% 20% 10% 25%
x264 [info]: i8 v,h,dc,ddl,ddr,vr,hd,vl,hu: 18% 13% 11%  7% 10% 10% 10% 10% 11%
x264 [info]: i4 v,h,dc,ddl,ddr,vr,hd,vl,hu: 31% 17%  5%  6%  9%  9%  8%  7%  8%
x264 [info]: i8c dc,h,v,p: 44% 24% 21% 12%
x264 [info]: Weighted P-Frames: Y:3.3% UV:1.8%
x264 [info]: ref P L0: 49.9% 10.0% 15.7%  5.8%  4.8%  3.1%  3.3%  1.5%  1.5%  1.0%  1.0%  0.8%  0.8%  0.7%  0.0%  0.0%
x264 [info]: ref B L0: 69.3% 11.8%  6.1%  3.2%  2.8%  1.8%  1.7%  0.9%  0.8%  0.6%  0.5%  0.3%  0.1%
x264 [info]: ref B L1: 93.8%  6.2%
x264 [info]: kb/s:1599.18

Скриншоты

[Торрент-статистика]
[Профиль]  [ЛС] 
Показать сообщения:    
Ответить на тему

Текущее время: Сегодня 20:09

Часовой пояс: GMT + 4



Вы не можете начинать темы
Вы не можете отвечать на сообщения
Вы не можете редактировать свои сообщения
Вы не можете удалять свои сообщения
Вы не можете голосовать в опросах
Вы не можете прикреплять файлы к сообщениям
Вы не можете скачивать файлы