Касл-Рок / Castle Rock [2018](Сезон 1, Серия 1-6 из 10)(Майкл Аппендаль, Дэниэл Эттиэс) [Ужасы, фэнтези, триллер, драма, детектив,WEB-DLRip][720p][ Lostfilm+AlexFilm+Gears Media+ ProfixMedia+NewStudio+IdeaFilm+OMSKBIRD+Eng]+[Subs ENG+Rus]

Ответить на тему
 
Автор
Сообщение

Враг Нароода ®

Пол:

Стаж: 7 месяцев 16 дней

Сообщений: 34

Репутация: 14 [+] [-]

Откуда: Красногорск

Пост 07-Авг-2018 11:33

[Цитировать] 

-- --Касл-Рок / Castle Rock Сезон 1, Серия 1-6 из 10-- --Год выпуска: 2018
Выпущено: США , Bad Robot, Warner Bros
Жанр:Ужасы, фэнтези, триллер, драма, детектив
Продолжительность: 00:55:00
Сезон:1
Серия: 1-6
Количество серий в сезоне: 10--Озвучка 1: - Профессиональный многоголосый -Lostfilm- Русский
Озвучка2: Профессиональный многоголосый - ProfixMedia -Русский
Озвучка 3: Профессиональный многоголосый - AlexFilm -Русский
Озвучка 4: Профессиональный многоголосый - NewStudio -Русский
Озвучка 5: Профессиональный многоголосый - IdeaFilm -Русский
Озвучка 6: Профессиональный двухголосый - Gears Media -Русский
Озвучка 7: Профессиональный многоголосый - Английский - Оригинал
Субтитры: : Russian, English, English SDH --Официальный сайт
MDB [img]https://rating.kinopoisk.ru/1040949.gif[/img]--Режиссер: Майкл Аппендаль, Дэниэл Эттиэс, Кевин Хукс--В ролях: Мелани Лински, Скотт Гленн, Андре Холланд, Джейн Леви, Терри О`Куинн, Билл Скарсгард, Сисси Спейсек, Калил Харрис, Чоузен Джейкобс, Эрик Шарп-- Начальник тюрьмы Шоушенк совершает самоубийство, и после его смерти в закрытом крыле здания находят странного юношу. Никто не знает, кто это, а сам он называет только имя адвоката Генри Дивера, который вырос в Касл-Роке. Дивер возвращается в город, где когда-то трагически погиб его отец, и пытается выяснить историю загадочного заключенного.-- --Качество :WEB-DLRip 720p
Формат: MKV
Видео кодек: H264
Видео: 4310Кбит/сек,1280х640(2.000), в 23.976кадр/сек,AVC (High@L3.1)(CABAC/4 Ref Frames)--Аудио Кодек:AC3
Аудио #1:AC3 640 Kbps, 48.0 KHz, 6 ch- Lostfilm -Русский
Аудио #2:AC3 , 384 Kbps, 48.0 KHz, 6 ch- ProfixMedia -Русский
Аудио #3:AC3 , 384 Kbps, 48.0 KHz, 6 ch-AlexFilm -Русский
Аудио #4:AC3 , 384 Kbps, 48.0 KHz, 6 ch- NewStudio -Русский
Аудио #5:AC3 , 384 Kbps, 48.0 KHz, 6 ch- IdeaFilm -Русский
Аудио #6:AC3 , 384 Kbps, 48.0 KHz, 6 ch- Gears Media -Русский
Аудио #7: AC3, 640 Kbps, 48.0 KHz,6 ch - - English - Оригинал--

Доп. информация:

Звуковая дорожка сделана путем наложения чистого голоса озвучивателей на центральный канал оригинальной дорожки. Качество идентично звуковой дорожке.
--

Список эпизодов сезона


1 сезон 1 серия - Прощание - Severance
1 сезон 2 серия - Хабеас корпус - Habeas Corpus
1 сезон 3 серия - Краски края - Local Color
1 сезон 4 серия - Ящик - The Box
1 сезон 5 серия - Жатва - Harvest
1 сезон 6 серия - Фильтр - Filter
--

MediaInfo сезона

Общее
Уникальный идентификатор : 337436390625653211093578693588460474306 (0xFDDBE28903F28C6F886C3AE6902F8FC2)
Полное имя : C:\Nikolai.Baranov & PIRATIYA\Касл-Рок - Castle Rock\CASTLE_ROCK_S01_Н264_DD5.1_N.B_HD_720_7xRus_Eng\Castle_Rock_S01E01_Н264_DD5.1_N.B_HD_720_7xRus_Eng.mkv
Формат : Matroska
Версия формата : Version 4 / Version 2
Размер файла : 2,81 Гбайт
Продолжительность : 54 м. 32 с.
Общий поток : 7385 Кбит/сек
Название фильма : Castle Rock S01E01 @ Nikolai.Baranov & PIRATIYA
Дата кодирования : UTC 2018-08-12 06:54:17
Программа кодирования : mkvmerge v25.0.0 ('Prog Noir') 64-bit
Библиотека кодирования : libebml v1.3.6 + libmatroska v1.4.9
Видео
Идентификатор : 1
Формат : AVC
Формат/Информация : Advanced Video Codec
Профиль формата : High@L3.1
Настройки формата : CABAC / 4 Ref Frames
Параметр CABAC формата : Да
Параметр RefFrames формата : 4 кадра
Идентификатор кодека : V_MPEG4/ISO/AVC
Продолжительность : 54 м. 32 с.
Битрейт : 4310 Кбит/сек
Ширина : 1280 пикселей
Высота : 640 пикселей
Соотношение сторон : 2,000
Режим частоты кадров : Постоянный
Частота кадров : 23,976 кадра/сек
Цветовое пространство : YUV
Субдискретизация насыщенности : 4:2:0
Битовая глубина : 8 бит
Тип развёртки : Прогрессивная
Бит/(Пиксели*Кадры) : 0.219
Размер потока : 1,64 Гбайт (58%)
Заголовок : Castle_Rock_S01E01_Н264_DD5.1_N.B_HD_720_7xRus_Eng
Язык : Russian
Default : Нет
Forced : Нет
Аудио #1
Идентификатор : 5
Формат : AC-3
Формат/Информация : Audio Coding 3
Идентификатор кодека : A_AC3
Продолжительность : 54 м. 31 с.
Вид битрейта : Постоянный
Битрейт : 384 Кбит/сек
Каналы : 6 каналов
Расположение каналов : Front: L C R, Side: L R, LFE
Частота : 48,0 КГц
Частота кадров : 31,250 кадров/сек (1536 SPF)
Битовая глубина : 16 бит
Метод сжатия : С потерями
Размер потока : 150 Мбайт (5%)
Заголовок : MVO LostFilm @DD5.1 AC3, 384 Kbps, 48.0 KHz, 6 ch
Язык : Russian
ServiceKind/String : Complete Main
Default : Да
Forced : Нет
Аудио #2
Идентификатор : 6
Формат : AC-3
Формат/Информация : Audio Coding 3
Идентификатор кодека : A_AC3
Продолжительность : 54 м. 32 с.
Вид битрейта : Постоянный
Битрейт : 384 Кбит/сек
Каналы : 6 каналов
Расположение каналов : Front: L C R, Side: L R, LFE
Частота : 48,0 КГц
Частота кадров : 31,250 кадров/сек (1536 SPF)
Битовая глубина : 16 бит
Метод сжатия : С потерями
Размер потока : 150 Мбайт (5%)
Заголовок : MVO ProfixMedia @DD5.1 AC3, 384 Kbps, 48.0 KHz, 6 ch
Язык : Russian
ServiceKind/String : Complete Main
Default : Нет
Forced : Нет
Аудио #3
Идентификатор : 7
Формат : AC-3
Формат/Информация : Audio Coding 3
Идентификатор кодека : A_AC3
Продолжительность : 54 м. 32 с.
Вид битрейта : Постоянный
Битрейт : 384 Кбит/сек
Каналы : 6 каналов
Расположение каналов : Front: L C R, Side: L R, LFE
Частота : 48,0 КГц
Частота кадров : 31,250 кадров/сек (1536 SPF)
Битовая глубина : 16 бит
Метод сжатия : С потерями
Размер потока : 150 Мбайт (5%)
Заголовок : MVO NewStudio @DD5.1 AC3, 384 Kbps, 48.0 KHz, 6 ch
Язык : Russian
ServiceKind/String : Complete Main
Default : Нет
Forced : Нет
Аудио #4
Идентификатор : 8
Формат : AC-3
Формат/Информация : Audio Coding 3
Идентификатор кодека : A_AC3
Продолжительность : 54 м. 32 с.
Вид битрейта : Постоянный
Битрейт : 384 Кбит/сек
Каналы : 6 каналов
Расположение каналов : Front: L C R, Side: L R, LFE
Частота : 48,0 КГц
Частота кадров : 31,250 кадров/сек (1536 SPF)
Битовая глубина : 16 бит
Метод сжатия : С потерями
Размер потока : 150 Мбайт (5%)
Заголовок : MVO AlexFilm @DD5.1 AC3, 384 Kbps, 48.0 KHz, 6 ch
Язык : Russian
ServiceKind/String : Complete Main
Default : Нет
Forced : Нет
Аудио #5
Идентификатор : 9
Формат : AC-3
Формат/Информация : Audio Coding 3
Идентификатор кодека : A_AC3
Продолжительность : 54 м. 32 с.
Вид битрейта : Постоянный
Битрейт : 384 Кбит/сек
Каналы : 6 каналов
Расположение каналов : Front: L C R, Side: L R, LFE
Частота : 48,0 КГц
Частота кадров : 31,250 кадров/сек (1536 SPF)
Битовая глубина : 16 бит
Метод сжатия : С потерями
Размер потока : 150 Мбайт (5%)
Заголовок : MVO IdeaFilm @DD5.1 AC3, 384 Kbps, 48.0 KHz, 6 ch
Язык : Russian
ServiceKind/String : Complete Main
Default : Нет
Forced : Нет
Аудио #6
Идентификатор : 10
Формат : AC-3
Формат/Информация : Audio Coding 3
Идентификатор кодека : A_AC3
Продолжительность : 54 м. 32 с.
Вид битрейта : Постоянный
Битрейт : 384 Кбит/сек
Каналы : 6 каналов
Расположение каналов : Front: L C R, Side: L R, LFE
Частота : 48,0 КГц
Частота кадров : 31,250 кадров/сек (1536 SPF)
Битовая глубина : 16 бит
Метод сжатия : С потерями
Размер потока : 150 Мбайт (5%)
Заголовок : MVO GearsMedia @DD5.1 AC3, 384 Kbps, 48.0 KHz, 6 ch
Язык : Russian
ServiceKind/String : Complete Main
Default : Нет
Forced : Нет
Аудио #7
Идентификатор : 11
Формат : AC-3
Формат/Информация : Audio Coding 3
Идентификатор кодека : A_AC3
Продолжительность : 54 м. 32 с.
Вид битрейта : Постоянный
Битрейт : 384 Кбит/сек
Каналы : 6 каналов
Расположение каналов : Front: L C R, Side: L R, LFE
Частота : 48,0 КГц
Частота кадров : 31,250 кадров/сек (1536 SPF)
Битовая глубина : 16 бит
Метод сжатия : С потерями
Размер потока : 150 Мбайт (5%)
Заголовок : Original@DD5.1 AC3 ,384 Kbps, 48.0 KHz, 6 ch
Язык : English
ServiceKind/String : Complete Main
Default : Нет
Forced : Нет
Аудио #8
Идентификатор : 12
Формат : AC-3
Формат/Информация : Audio Coding 3
Идентификатор кодека : A_AC3
Продолжительность : 54 м. 32 с.
Вид битрейта : Постоянный
Битрейт : 384 Кбит/сек
Каналы : 6 каналов
Расположение каналов : Front: L C R, Side: L R, LFE
Частота : 48,0 КГц
Частота кадров : 31,250 кадров/сек (1536 SPF)
Битовая глубина : 16 бит
Метод сжатия : С потерями
Размер потока : 150 Мбайт (5%)
Заголовок : MVO OMSKBIRD @DD5.1 AC3, 384 Kbps, 48.0 KHz, 6 ch
Язык : Russian
ServiceKind/String : Complete Main
Default : Нет
Forced : Нет
Текст #1
Идентификатор : 2
Формат : UTF-8
Идентификатор кодека : S_TEXT/UTF8
Идентификатор кодека/Информация : UTF-8 Plain Text
Продолжительность : 51 м. 43 с.
Битрейт : 59 бит/сек
ElementCount : 467
Размер потока : 22,5 Кбайт (0%)
Заголовок : Rus
Язык : Russian
Default : Да
Forced : Нет
Текст #2
Идентификатор : 3
Формат : UTF-8
Идентификатор кодека : S_TEXT/UTF8
Идентификатор кодека/Информация : UTF-8 Plain Text
Продолжительность : 52 м. 15 с.
Битрейт : 44 бит/сек
ElementCount : 618
Размер потока : 17,2 Кбайт (0%)
Заголовок : Original - SDH
Язык : English
Default : Нет
Forced : Нет
Текст #3
Идентификатор : 4
Формат : UTF-8
Идентификатор кодека : S_TEXT/UTF8
Идентификатор кодека/Информация : UTF-8 Plain Text
Продолжительность : 52 м. 3 с.
Битрейт : 37 бит/сек
ElementCount : 478
Размер потока : 14,1 Кбайт (0%)
Заголовок : Original
Язык : English
Default : Нет
Forced : Нет
Меню
00:00:00.000 : en:Глава 01 / en:Глава 01 / en:Глава 01 / en:Глава 01 / en:Глава 01 / en:Глава 01 / en:Глава 01 / en:Глава 01 / en:Глава 01 / en:Глава 01 / en:Глава 01 / en:Глава 01
--

Скриншоты

-- Сезон 1--Внимание! Раздача пополняется по мере выхода новых серий!--

Внимание! Раздача ведётся путём добавления новых серий!

Раздача ведётся путём добавления новых серий; при каждом добавлении создётся новый торрент.
Чтобы начать докачку новой серии, пользователям необходимо сделать следующее:
1. остановить скачивание,
2. удалить старый торрент у себя из клиента (старые серии удалять не надо),
3. скачать новый торрент и запустить его у себя в клиенте вместо старого, при этом указать клиенту путь в старую папку, куда и должно происходить скачивание новых серий.
Ваш клиент при этом должен произвести хеширование (проверку) старой папки (если не производит сам - помогите ему сделать это), и будет докачивать только те серии которых у вас ещё нет. Старые серии при этом не удаляются, а продолжают раздаваться!
Eсли вы уже удалили старые серии, то предотвратить повторную закачку старых серий можно, отжав галочку в соответсвующих местах при запуске нового торрента. По возможности, желательно не удалять старые серии как можно дольше, чтобы релизёр не столько продолжал раздавать старые серии, а смог сконцентрироваться на новых.
Совет для тех, кто не хочет ждать перехеширования:
Создайте ещё одну папку рядом с папкой сериала (рядом, а не в ней!!!). Каждую новую серию после удачной загрузки копируйте в новую папку так чтобы ваша основная папка всегда была пуста. Когда ваш новый торрент предложит вам закачать все файлы, выберете только последнюю. Для сидирования же укажите адрес новой папки.
Как закачать отдельный файл из торрента или докачать ранее пропущенные файлы торрента!

Как закачать отдельный файл

1. Открыть торрент
2. Снять галки с тех файлов торрента, которые мы не хотим закачивать. Оставляем только на нужных нам файлах (файле).
3. Нажать О.К.
В клиенте utorrent
Инструкция
1) Открыть торрент

2) Снять галки с тех файлов торрента, которые мы не хотим закачивать:
* либо вручную, снимая с каждого файла галку( скрин №1)
* либо, нажав кнопку "Снять метки (Select None)", сняв сразу со всех файлов(скрин №2)
№1

№2

Оставляем только на нужных нам файлах (файле).

3)Нажать О.К
-- -- --Внимание!!! 18.08. 2018. РАЗДАЧА ОБНОВЛЕНА. ДОБАВЛЕНА 6СЕРИЯ. ОБНОВИТЕ ТОРЕНТ ФАЙЛ. ПРИЯТНОГО ПРОСМОТРА . --Релиз от: Nikolai.Baranov & PIRATIYA -- -- -- --Время раздачи : 24/7--

_________________

Легко быть оптимистом, когда судьба не валит с ног тяжелыми ударами, а лишь иногда легонько шлепает по заднице.
[Торрент-статистика]
[Профиль]  [ЛС] 
Показать сообщения:    
Ответить на тему

Текущее время: Сегодня 02:53

Часовой пояс: GMT + 4



Вы не можете начинать темы
Вы не можете отвечать на сообщения
Вы не можете редактировать свои сообщения
Вы не можете удалять свои сообщения
Вы не можете голосовать в опросах
Вы не можете прикреплять файлы к сообщениям
Вы не можете скачивать файлы