Костяной томагавк / Bone Tomahawk [2015] (С. Крэйг Залер) [Ужасы, триллер, драма, приключения, вестерн ] [Blu-Ray ] [1080p] [DD5.1] [Dub Rus,Englis + Subs Rus , ENG] [Лицензия]

Ответить на тему
 
Автор
Сообщение

Враг Нароода ®

Пол:

Стаж: 9 месяцев 20 дней

Сообщений: 51

Репутация: 27 [+] [-]

Откуда: Красногорск

Пост 24-Июл-2018 18:34

[Цитировать] 

--Костяной томагавк / Bone Tomahawk-- --[Год выпуска: 2015
Выпущено: США , Caliber Media Company
Жанр: Ужасы, триллер, драма, приключения, вестерн
Продолжительность: 02:12:03--Озвучка 1: - Дублированный - -Лицензия - Русский
Озвучка 2: Профессиональный многоголосый -Paradox & OMSKBIRD records -Русский
Озвучка 3: Авторское одноголосое (закадровое) -C. Визгунов -Русский
Озвучка 4: Авторское одноголосое (закадровое) -М. Яроцкий -Русский
Озвучка 5: Профессиональный многоголосый -Английский -Оригинал
Субтитры: ( Russian , English, English (SDH)
--MDB [img]https://rating.kinopoisk.ru/715046.gif[/img]--Режиссер:
С. Крэйг Залер--В ролях: Патрик Уилсон, Курт Расселл, Лили Симмонс, Шон Янг, Занн МаКларнон, Мэттью Фокс, Дэвид Аркетт, Сид Хэйг, Ричард Дженкинс, Кэтрин Моррис-- Четверо людей приезжают на дикий запад, для того чтобы убрать кровожадных каннибалов из пещер. Ведь население напугано. Каждую ночь эти монстры приходят и забирают самых слабых, только для того, чтобы полакомиться трупами...-- --Качество :Blu-Ray 1080p
Формат: MKV
Видео кодек: H264
Видео: 14,0Мбит/сек,1920х1080(16.9), в 23.976кадр/сек,AVC (High@L4.1)(CABAC/4 Ref Frames)--Аудио Кодек:AC3
Аудио #1:AC3 , 640 Kbps, 48.0 KHz, 6 ch- Дублированный - -Лицензия- -Русский
Аудио #2:AC3, 384 Kbps, 48.0 KHz,6 ch - Профессиональный многоголосый - Paradox & OMSKBIRD records -Русский
Аудио #3:AC3, 384 Kbps, 48.0 KHz,6 ch - Авторское одноголосое - C. Визгунов-Русский
Аудио #4:AC3, 384 Kbps, 48.0 KHz,6 ch - Авторское одноголосое -М. Яроцкий -Русский
Аудио #5: AC3, 640 Kbps, 48.0 KHz,6 ch - - English - Оригинал--

MediaInfo

Общее
Уникальный идентификатор : 162098571459598874748538073173813411355 (0x79F30C9D1101BA000D2F84E558C0BE1B)
Полное имя : C:\Nikolai.Baranov & PIRATIYA\Костяной томагавк - Bone Tomahawk\Bone_Tomahawk_2015_Н264_DD5.1_N.B_Blu-Ray_1080_4xRus_Eng\Bone_Tomahawk_2015_Н264_DD5.1_N.B_Blu-Ray_1080_4xRus_Eng.mkv
Формат : Matroska
Версия формата : Version 4 / Version 2
Размер файла : 15,2 Гбайт
Продолжительность : 2 ч. 12 м.
Режим общего битрейта : Переменный
Общий поток : 16,4 Мбит/сек
Название фильма : Bone Tomahawk 2015 @ Nikolai.Baranov & PIRATIYA
Дата кодирования : UTC 2018-07-24 09:34:27
Программа кодирования : mkvmerge v25.0.0 ('Prog Noir') 64-bit
Библиотека кодирования : libebml v1.3.6 + libmatroska v1.4.9
Видео
Идентификатор : 1
Формат : AVC
Формат/Информация : Advanced Video Codec
Профиль формата : High@L4.1
Настройки формата : CABAC / 4 Ref Frames
Параметр CABAC формата : Да
Параметр RefFrames формата : 4 кадра
Идентификатор кодека : V_MPEG4/ISO/AVC
Продолжительность : 2 ч. 12 м.
Вид битрейта : Переменный
Битрейт : 14,0 Мбит/сек
Максимальный битрейт : 30,0 Мбит/сек
Ширина : 1920 пикселей
Высота : 1080 пикселей
Соотношение сторон : 16:9
Режим частоты кадров : Постоянный
Частота кадров : 23,976 (24000/1001) кадра/сек
Цветовое пространство : YUV
Субдискретизация насыщенности : 4:2:0
Битовая глубина : 8 бит
Тип развёртки : Прогрессивная
Бит/(Пиксели*Кадры) : 0.281
Размер потока : 12,9 Гбайт (85%)
Заголовок : Bone_Tomahawk_2015_Н264_DD5.1_N.B_Blu-Ray_1080_4xRus_Eng
Язык : Russian
Default : Да
Forced : Нет
Аудио #1
Идентификатор : 5
Формат : AC-3
Формат/Информация : Audio Coding 3
Идентификатор кодека : A_AC3
Продолжительность : 2 ч. 12 м.
Вид битрейта : Постоянный
Битрейт : 640 Кбит/сек
Каналы : 6 каналов
Расположение каналов : Front: L C R, Side: L R, LFE
Частота : 48,0 КГц
Частота кадров : 31,250 кадров/сек (1536 SPF)
Битовая глубина : 16 бит
Метод сжатия : С потерями
Размер потока : 605 Мбайт (4%)
Заголовок : Dub [License] @DD5.1 AC3, 640 Kbps, 48.0 KHz, 6 ch
Язык : Russian
ServiceKind/String : Complete Main
Default : Да
Forced : Нет
Аудио #2
Идентификатор : 6
Формат : AC-3
Формат/Информация : Audio Coding 3
Идентификатор кодека : A_AC3
Продолжительность : 2 ч. 12 м.
Вид битрейта : Постоянный
Битрейт : 384 Кбит/сек
Каналы : 6 каналов
Расположение каналов : Front: L C R, Side: L R, LFE
Частота : 48,0 КГц
Частота кадров : 31,250 кадров/сек (1536 SPF)
Битовая глубина : 16 бит
Метод сжатия : С потерями
Размер потока : 363 Мбайт (2%)
Заголовок : MVO [Paradox & OMSKBIRD records] @DD5.1 AC3, 384 Kbps, 48.0 KHz, 6 ch
Язык : Russian
ServiceKind/String : Complete Main
Default : Нет
Forced : Нет
Аудио #3
Идентификатор : 7
Формат : AC-3
Формат/Информация : Audio Coding 3
Идентификатор кодека : A_AC3
Продолжительность : 2 ч. 12 м.
Вид битрейта : Постоянный
Битрейт : 384 Кбит/сек
Каналы : 6 каналов
Расположение каналов : Front: L C R, Side: L R, LFE
Частота : 48,0 КГц
Частота кадров : 31,250 кадров/сек (1536 SPF)
Битовая глубина : 16 бит
Метод сжатия : С потерями
Размер потока : 363 Мбайт (2%)
Заголовок : AVO [Vizgunov][C. Визгунов] @DD5.1 AC3, 384 Kbps, 48.0 KHz, 6 ch
Язык : Russian
ServiceKind/String : Complete Main
Default : Нет
Forced : Нет
Аудио #4
Идентификатор : 8
Формат : AC-3
Формат/Информация : Audio Coding 3
Идентификатор кодека : A_AC3
Продолжительность : 2 ч. 12 м.
Вид битрейта : Постоянный
Битрейт : 384 Кбит/сек
Каналы : 6 каналов
Расположение каналов : Front: L C R, Side: L R, LFE
Частота : 48,0 КГц
Частота кадров : 31,250 кадров/сек (1536 SPF)
Битовая глубина : 16 бит
Метод сжатия : С потерями
Размер потока : 363 Мбайт (2%)
Заголовок : AVO [Kyberpunk][М. Яроцкий] @DD5.1 AC3, 384 Kbps, 48.0 KHz, 6 ch
Язык : Russian
ServiceKind/String : Complete Main
Default : Нет
Forced : Нет
Аудио #5
Идентификатор : 9
Формат : AC-3
Формат/Информация : Audio Coding 3
Идентификатор кодека : A_AC3
Продолжительность : 2 ч. 12 м.
Вид битрейта : Постоянный
Битрейт : 640 Кбит/сек
Каналы : 6 каналов
Расположение каналов : Front: L C R, Side: L R, LFE
Частота : 48,0 КГц
Частота кадров : 31,250 кадров/сек (1536 SPF)
Битовая глубина : 16 бит
Метод сжатия : С потерями
Размер потока : 605 Мбайт (4%)
Заголовок : Original@DD5.1 AC3 ,640 Kbps, 48.0 KHz, 6 ch
Язык : English
ServiceKind/String : Complete Main
Default : Нет
Forced : Нет
Текст #1
Идентификатор : 2
Формат : UTF-8
Идентификатор кодека : S_TEXT/UTF8
Идентификатор кодека/Информация : UTF-8 Plain Text
Продолжительность : 2 ч. 3 м.
Битрейт : 73 бит/сек
ElementCount : 1308
Размер потока : 66,3 Кбайт (0%)
Заголовок : Rus - Full
Язык : Russian
Default : Нет
Forced : Нет
Текст #2
Идентификатор : 3
Формат : UTF-8
Идентификатор кодека : S_TEXT/UTF8
Идентификатор кодека/Информация : UTF-8 Plain Text
Продолжительность : 2 ч. 3 м.
Битрейт : 44 бит/сек
ElementCount : 1475
Размер потока : 40,0 Кбайт (0%)
Заголовок : Original - Full
Язык : English
Default : Нет
Forced : Нет
Текст #3
Идентификатор : 4
Формат : UTF-8
Идентификатор кодека : S_TEXT/UTF8
Идентификатор кодека/Информация : UTF-8 Plain Text
Продолжительность : 2 ч. 3 м.
Битрейт : 44 бит/сек
ElementCount : 1480
Размер потока : 40,2 Кбайт (0%)
Заголовок : Original - SDH
Язык : English
Default : Нет
Forced : Нет
Меню
00:00:00.000 : en:Глава 01 / en:Глава 01 / en:Глава 01 / en:Глава 01 / en:Глава 01 / en:Глава 01 / en:Глава 01 / en:Глава 01 / en:Глава 01
--

Скриншоты

-- -- -- --Релиз от: Nikolai.Baranov & PIRATIYA -- -- -- --Время раздачи: 24/7--

_________________

Легко быть оптимистом, когда судьба не валит с ног тяжелыми ударами, а лишь иногда легонько шлепает по заднице.
[Торрент-статистика]
[Профиль]  [ЛС] 
Показать сообщения:    
Ответить на тему

Текущее время: Сегодня 03:01

Часовой пояс: GMT + 4



Вы не можете начинать темы
Вы не можете отвечать на сообщения
Вы не можете редактировать свои сообщения
Вы не можете удалять свои сообщения
Вы не можете голосовать в опросах
Вы не можете прикреплять файлы к сообщениям
Вы не можете скачивать файлы