Мир Дикого запада / Westworld [2018] (Сезон 2, Серия 1-4 из 10 ) (Джонатан Нолан, Ричард Дж. Льюис) [Фантастика, триллер, вестерн , WEB-DLRip][1080p][Кравец+NewStudiо+Jaskier+ AlexFilm+BaibaKО+Eng]+[Subs ENG+Rus]

Ответить на тему
 
Автор
Сообщение

Враг Нароода ®

Пол:

Стаж: 4 месяца 19 дней

Сообщений: 25

Репутация: 14 [+] [-]

Откуда: Красногорск

Пост 16-Май-2018 23:22

[Цитировать] 

--Мир Дикого запада / Westworld Сезон 2, Серия 1-4 из 10-- --Год выпуска: 2018
Выпущено: США , , Bad Robot, Jerry Weintraub Productions, Kilter Films, Warner Bros. Television
Жанр: Фантастика, триллер, вестерн
Продолжительность: 01:00:00
Сезон:2
Серия: 1-4
Количество серий в сезоне: 10--Озвучка 1: - Дублированный -Кравец- по заказу Amedia]-Русский
Озвучка2: Профессиональный многоголосый - AlexFilm -Русский
Озвучка3: Профессиональный многоголосый - BaibaKО -Русский
Озвучка 4: Профессиональный многоголосый - NewStudiо -Русский
Озвучка 5: Профессиональный многоголосый - Английский - Оригинал
Субтитры: : Russian, English, English SDH --MDB [img]https://rating.kinopoisk.ru/195523.gif[/img]--Режиссер: Джонатан Нолан, Ричард Дж. Льюис, Нил Маршалл--В ролях: Ивэн Рэйчел Вуд, Тэнди Ньютон, Джеффри Райт, Джеймс Марсден, Бен Барнс, Ингрид Бульсё Бердал, Клифтон Коллинз-мл., Люк Хемсворт, Сидсе Бабетт Кнудсен, Саймон Куортерман, Родриго Санторо, Анджела Сарафян, Джимми Симпсон, Тесса Томпсон, Шеннон Вудворд, Эд Харрис, Энтони Хопкинс-- Фантастический сериал, снятый при участии Джонатана Нолана («Интерстеллар», «Престиж») и Джей Джей Абрамса («Остаться в живых», «Звездные войны: Пробуждение силы»). Недалекое будущее. Гениальный конструктор и изобретатель Роберт Форд (Энтони Хопкинс) создает необычный парк развлечений, стилизованный под эпоху Дикого Запада. Однако люди едут сюда не столько за тем, чтобы на некоторое время перенестись в прошлое, сколько за новыми ощущениями: свой парк доктор Форд заселил человекоподобными роботами, с которыми посетители могут делать, все что захотят. Бояться им нечего: несмотря на то, что у некоторых андроидов есть оружие, они никогда не применят его против человека, поскольку запрограммированы угождать гостям парка. Но все меняется после поломки системы: один за другим роботы начинают нарушать заданный сценарий. Основную идею создатели сериала заимствовали из одноименного научно-фантастического фильма 1973 года писателя и режиссера Майкла Крайтона. Произведения Крайтона неоднократно привлекали внимание кинематографистов еще до публикации: за право экранизировать его роман «Парк Юрского периода» боролись сразу несколько студий, в итоге права приобрел Стивен Спилберг.-- --Качество :WEB-DLRip 1080p
Формат: MKV
Видео кодек: H264
Видео: 10,3Мбит/сек,1920х1080(16.9),в 23.976кадр/сек,AVC (High@L4)(CABAC/4 Ref Frames)--Аудио Кодек:AC3
[Аудио #1:AC3 384 Kbps, 48.0 KHz, 6 ch- Кравец -Русский
Аудио #2:AC3 , 384 Kbps, 48.0 KHz, 6 ch- AlexFilm -Русский
Аудио #3:AC3 , 384 Kbps, 48.0 KHz, 6 ch- BaibaKО -Русский
Аудио #4:AC3 , 384 Kbps, 48.0 KHz, 6 ch-NewStudiо -Русский
Аудио #7: AC3, 640 Kbps, 48.0 KHz,6 ch - - English - Оригинал--

Доп. информация:

Звуковая дорожка сделана путем наложения чистого голоса озвучивателей на центральный канал оригинальной дорожки. Качество идентично звуковой дорожке.
--

Список эпизодов сезона


1. Путешествие в ночь / Journey Into Night
2. Воссоединение / Reunion
3. Добродетель и удача / Virtù e Fortuna
4.
--

MediaInfo сезона

Общее
Уникальный идентификатор : 9832222720447052509366329079099780372 (0x7659E01D97130676DCF4D2C6FF76D14)
Полное имя : E:\Nikolai.Baranov & PIRATIYA\Мир Дикого Запада ( Westworld )\WESTWORLD_S02_Н264_DD5.1_N.B_HD_1080_4xRus_Eng\Westworld_S02E01_Н264_DD5.1_N.B_HD_1080_4xRus_Eng.mkv
Формат : Matroska
Версия формата : Version 4 / Version 2
Размер файла : 6,49 Гбайт
Продолжительность : 1 ч. 14 м.
Режим общего битрейта : Переменный
Общий поток : 12,4 Мбит/сек
Название фильма : Westworld S02E01 @ Nikolai.Baranov & PIRATIYA
Дата кодирования : UTC 2018-05-09 10:26:30
Программа кодирования : mkvmerge v23.0.0 ('The Bride Said No') 64-bit
Библиотека кодирования : libebml v1.3.6 + libmatroska v1.4.9
Видео
Идентификатор : 1
Формат : AVC
Формат/Информация : Advanced Video Codec
Профиль формата : High@L4
Настройки формата : CABAC / 4 Ref Frames
Параметр CABAC формата : Да
Параметр RefFrames формата : 4 кадра
Идентификатор кодека : V_MPEG4/ISO/AVC
Продолжительность : 1 ч. 14 м.
Вид битрейта : Переменный
Битрейт : 10,3 Мбит/сек
Максимальный битрейт : 15,0 Мбит/сек
Ширина : 1920 пикселей
Высота : 1080 пикселей
Соотношение сторон : 16:9
Режим частоты кадров : Постоянный
Частота кадров : 23,976 (24000/1001) кадра/сек
Цветовое пространство : YUV
Субдискретизация насыщенности : 4:2:0
Битовая глубина : 8 бит
Тип развёртки : Прогрессивная
Бит/(Пиксели*Кадры) : 0.207
Размер потока : 5,36 Гбайт (83%)
Заголовок : Westworld_S02E01_Н264_DD5.1_N.B_HD_1080_4xRus_Eng
Язык : Russian
Default : Да
Forced : Нет
Цветовой диапазон : Limited
Основные цвета : BT.709
Характеристики трансфера : BT.709
Коэффициенты матрицы : BT.709
Аудио #1
Идентификатор : 6
Формат : AC-3
Формат/Информация : Audio Coding 3
Идентификатор кодека : A_AC3
Продолжительность : 1 ч. 14 м.
Вид битрейта : Постоянный
Битрейт : 384 Кбит/сек
Каналы : 6 каналов
Расположение каналов : Front: L C R, Side: L R, LFE
Частота : 48,0 КГц
Частота кадров : 31,250 кадров/сек (1536 SPF)
Битовая глубина : 16 бит
Метод сжатия : С потерями
Размер потока : 205 Мбайт (3%)
Заголовок : Amedia (Кравец) @DD5.1 AC3, 384 Kbps, 48.0 KHz, 6 ch
Язык : Russian
ServiceKind/String : Complete Main
Default : Да
Forced : Нет
Аудио #2
Идентификатор : 7
Формат : AC-3
Формат/Информация : Audio Coding 3
Идентификатор кодека : A_AC3
Продолжительность : 1 ч. 13 м.
Вид битрейта : Постоянный
Битрейт : 384 Кбит/сек
Каналы : 6 каналов
Расположение каналов : Front: L C R, Side: L R, LFE
Частота : 48,0 КГц
Частота кадров : 31,250 кадров/сек (1536 SPF)
Битовая глубина : 16 бит
Метод сжатия : С потерями
Размер потока : 202 Мбайт (3%)
Заголовок : MVO AlexFilm @DD5.1 AC3, 384 Kbps, 48.0 KHz, 6 ch
Язык : Russian
ServiceKind/String : Complete Main
Default : Нет
Forced : Нет
Аудио #3
Идентификатор : 8
Формат : AC-3
Формат/Информация : Audio Coding 3
Идентификатор кодека : A_AC3
Продолжительность : 1 ч. 13 м.
Вид битрейта : Постоянный
Битрейт : 384 Кбит/сек
Каналы : 6 каналов
Расположение каналов : Front: L C R, Side: L R, LFE
Частота : 48,0 КГц
Частота кадров : 31,250 кадров/сек (1536 SPF)
Битовая глубина : 16 бит
Метод сжатия : С потерями
Размер потока : 202 Мбайт (3%)
Заголовок : MVO NewStudio @DD5.1 AC3, 384 Kbps, 48.0 KHz, 6 ch
Язык : Russian
ServiceKind/String : Complete Main
Default : Нет
Forced : Нет
Аудио #4
Идентификатор : 9
Формат : AC-3
Формат/Информация : Audio Coding 3
Идентификатор кодека : A_AC3
Продолжительность : 1 ч. 14 м.
Вид битрейта : Постоянный
Битрейт : 384 Кбит/сек
Каналы : 6 каналов
Расположение каналов : Front: L C R, Side: L R, LFE
Частота : 48,0 КГц
Частота кадров : 31,250 кадров/сек (1536 SPF)
Битовая глубина : 16 бит
Метод сжатия : С потерями
Размер потока : 205 Мбайт (3%)
Заголовок : MVO BaibaKo @DD5.1 AC3, 384 Kbps, 48.0 KHz, 6 ch
Язык : Russian
ServiceKind/String : Complete Main
Default : Нет
Forced : Нет
Аудио #5
Идентификатор : 10
Формат : AC-3
Формат/Информация : Audio Coding 3
Идентификатор кодека : A_AC3
Продолжительность : 1 ч. 14 м.
Вид битрейта : Постоянный
Битрейт : 640 Кбит/сек
Каналы : 6 каналов
Расположение каналов : Front: L C R, Side: L R, LFE
Частота : 48,0 КГц
Частота кадров : 31,250 кадров/сек (1536 SPF)
Битовая глубина : 16 бит
Метод сжатия : С потерями
Размер потока : 342 Мбайт (5%)
Заголовок : Original@DD5.1 AC3 ,640 Kbps, 48.0 KHz, 6 ch
Язык : English
ServiceKind/String : Complete Main
Default : Нет
Forced : Нет
Текст #1
Идентификатор : 2
Формат : UTF-8
Идентификатор кодека : S_TEXT/UTF8
Идентификатор кодека/Информация : UTF-8 Plain Text
Продолжительность : 3 м. 51 с.
Битрейт : 173 бит/сек
ElementCount : 91
Размер потока : 4,92 Кбайт (0%)
Заголовок : Forced
Язык : Russian
Default : Да
Forced : Нет
Текст #2
Идентификатор : 3
Формат : UTF-8
Идентификатор кодека : S_TEXT/UTF8
Идентификатор кодека/Информация : UTF-8 Plain Text
Продолжительность : 1 ч. 6 м.
Битрейт : 50 бит/сек
ElementCount : 605
Размер потока : 24,4 Кбайт (0%)
Заголовок : Amedia
Язык : Russian
Default : Нет
Forced : Нет
Текст #3
Идентификатор : 4
Формат : UTF-8
Идентификатор кодека : S_TEXT/UTF8
Идентификатор кодека/Информация : UTF-8 Plain Text
Продолжительность : 1 ч. 14 м.
Битрейт : 38 бит/сек
ElementCount : 714
Размер потока : 21,1 Кбайт (0%)
Заголовок : Original
Язык : English
Default : Нет
Forced : Нет
Текст #4
Идентификатор : 5
Формат : UTF-8
Идентификатор кодека : S_TEXT/UTF8
Идентификатор кодека/Информация : UTF-8 Plain Text
Продолжительность : 1 ч. 14 м.
Битрейт : 42 бит/сек
ElementCount : 802
Размер потока : 23,2 Кбайт (0%)
Заголовок : Original - SDH
Язык : English
Default : Нет
Forced : Нет
Меню
00:00:00.000 : en:Глава 01 / en:Глава 01 / en:Глава 01 / en:Глава 01 / en:Глава 01 / en:Глава 01 / en:Глава 01 / en:Глава 01 / en:Глава 01 / en:Глава 01
--

Скриншоты

-- ----Внимание! Раздача пополняется по мере выхода новых серий!--

Внимание! Раздача ведётся путём добавления новых серий!

Раздача ведётся путём добавления новых серий; при каждом добавлении создётся новый торрент.
Чтобы начать докачку новой серии, пользователям необходимо сделать следующее:
1. остановить скачивание,
2. удалить старый торрент у себя из клиента (старые серии удалять не надо),
3. скачать новый торрент и запустить его у себя в клиенте вместо старого, при этом указать клиенту путь в старую папку, куда и должно происходить скачивание новых серий.
Ваш клиент при этом должен произвести хеширование (проверку) старой папки (если не производит сам - помогите ему сделать это), и будет докачивать только те серии которых у вас ещё нет. Старые серии при этом не удаляются, а продолжают раздаваться!
Eсли вы уже удалили старые серии, то предотвратить повторную закачку старых серий можно, отжав галочку в соответсвующих местах при запуске нового торрента. По возможности, желательно не удалять старые серии как можно дольше, чтобы релизёр не столько продолжал раздавать старые серии, а смог сконцентрироваться на новых.
Совет для тех, кто не хочет ждать перехеширования:
Создайте ещё одну папку рядом с папкой сериала (рядом, а не в ней!!!). Каждую новую серию после удачной загрузки копируйте в новую папку так чтобы ваша основная папка всегда была пуста. Когда ваш новый торрент предложит вам закачать все файлы, выберете только последнюю. Для сидирования же укажите адрес новой папки.
Как закачать отдельный файл из торрента или докачать ранее пропущенные файлы торрента!

Как закачать отдельный файл

1. Открыть торрент
2. Снять галки с тех файлов торрента, которые мы не хотим закачивать. Оставляем только на нужных нам файлах (файле).
3. Нажать О.К.
В клиенте utorrent
Инструкция
1) Открыть торрент

2) Снять галки с тех файлов торрента, которые мы не хотим закачивать:
* либо вручную, снимая с каждого файла галку( скрин №1)
* либо, нажав кнопку "Снять метки (Select None)", сняв сразу со всех файлов(скрин №2)
№1

№2

Оставляем только на нужных нам файлах (файле).

3)Нажать О.К
-- -- --Релиз от: Nikolai.Baranov & PIRATIYA -- -- -- --

_________________

Легко быть оптимистом, когда судьба не валит с ног тяжелыми ударами, а лишь иногда легонько шлепает по заднице.
[Торрент-статистика]
[Профиль]  [ЛС] 
Показать сообщения:    
Ответить на тему

Текущее время: Сегодня 23:47

Часовой пояс: GMT + 4



Вы не можете начинать темы
Вы не можете отвечать на сообщения
Вы не можете редактировать свои сообщения
Вы не можете удалять свои сообщения
Вы не можете голосовать в опросах
Вы не можете прикреплять файлы к сообщениям
Вы не можете скачивать файлы