Остаться в живых.Трилогия / Fritt vilt .Trilogy (Роар Утхауг, Матс Штенберг, Миккел Бренне Сандемус) [2006. 2008. 2010. Ужасы, триллер, HQRip-AVC]

Ответить на тему
 
Автор
Сообщение

diim ®

Пол:

Стаж: 4 года 8 месяцев

Сообщений: 1040

Репутация: 112 [+] [-]

Пост 20-Янв-2012 23:11

[Цитировать] 

Остаться в живых.Трилогия

Остаться в живых-1.2006

Остаться в живых / Fritt vilt Год выпуска: 2006
Страна: Норвегия
Слоган: «Они не знали, что этот спуск станет последним...»
Жанр: Ужасы, триллер
Продолжительность: 01:33:30
Перевод: Авторский одноголосый
Субтитры: Нет-Режиссёр: Роар Утхауг
Сценарист: Томас Молдстад, Ян Эрик Лангоен, Магне Лингнер
Продюсер: Магне Лингнер, Мартин Сандлэнд, Эксел Хелглэнд
Оператор: Дэниэл Волдгейм
Композитор: Магнус Бейте
В ролях: Ингрид Болсай Бердал, Рольф Кристиан Ларсен, Томас Альф Ларсен, Андрэ Мартин Мидтстайген, Виктория Винги, Руне Мелби, Тони Лунде-Описание: В середине зимы, группа молодых людей поехала в Ютенхейм, покататься на сноубордах. В результате несчастного случая, один из них сломал ногу и они оказались в затруднительном положении, так как поблизости не было людей, а у телефона отсутствовал сигнал. В горах они набрели на заброшенный отель, но и оттуда они не могли вызвать помощь, так как телефонная линия давно вышла из строя. Стало ясно, что им придется переночевать в отеле, но ночью они увидели что то, что разубедило их в том, что они одни…-Мировая премьера: 13 октября 2006-Качество: HQRip-AVC
Формат: MKV
Видео кодек: H264 (AVC)
Аудио кодек: AC3 (Dolby Digital)
Видео: 1024x432 (2.35), 25.000 fps, х264, 1860 kbps
Аудио #1: 48 kHz, 2ch, ~320.00 kbps avg [Авторский одноголосый (RussianGuy27)]
Субтитры: Нет-

MediaInfo

General
Unique ID : 171422603791244773621255945920446842847 (0x80F6CAE66F04D0EAADA57D5AB8A5C7DF)
Complete name : Fritt vilt-1.mkv
Format : Matroska
Format version : Version 2
File size : 1.45 GiB
Duration : 1h 33mn
Overall bit rate : 2 224 Kbps
Movie name : Fritt vilt-1.chopper887
Encoded date : UTC 2011-03-04 14:57:04
Writing application : mkvmerge v4.4.0 ('Die Wiederkehr') built on Nov 7 2010 22:17:07
Writing library : libebml v1.0.0 + libmatroska v1.0.0
Video
ID : 1
Format : AVC
Format/Info : Advanced Video Codec
Format profile : High@L4.1
Format settings, CABAC : Yes
Format settings, ReFrames : 10 frames
Muxing mode : Header stripping
Codec ID : V_MPEG4/ISO/AVC
Duration : 1h 33mn
Bit rate : 1 906 Kbps
Width : 1 024 pixels
Height : 432 pixels
Display aspect ratio : 2.35:1
Frame rate : 25.000 fps
Color space : YUV
Chroma subsampling : 4:2:0
Bit depth : 8 bits
Scan type : Progressive
Bits/(Pixel*Frame) : 0.172
Stream size : 1.21 GiB (84%)
Title : Fritt vilt-1.chopper887
Writing library : x264 core 112 r1867 22bfd31
Encoding settings : cabac=1 / ref=10 / deblock=1:-2:-1 / analyse=0x3:0x133 / me=umh / subme=9 / psy=1 / psy_rd=1.00:0.10 / mixed_ref=1 / me_range=32 / chroma_me=0 / trellis=2 / 8x8dct=1 / cqm=0 / deadzone=21,11 / fast_pskip=0 / chroma_qp_offset=-3 / threads=3 / sliced_threads=0 / nr=0 / decimate=1 / interlaced=0 / constrained_intra=0 / bframes=8 / b_pyramid=2 / b_adapt=2 / b_bias=0 / direct=3 / weightb=1 / open_gop=0 / weightp=2 / keyint=250 / keyint_min=25 / scenecut=40 / intra_refresh=0 / rc_lookahead=80 / rc=2pass / mbtree=1 / bitrate=1906 / ratetol=1.0 / qcomp=0.70 / qpmin=10 / qpmax=51 / qpstep=4 / cplxblur=20.0 / qblur=0.5 / ip_ratio=1.40 / aq=1:1.00
Language : English
Audio
ID : 2
Format : AC-3
Format/Info : Audio Coding 3
Mode extension : CM (complete main)
Muxing mode : Header stripping
Codec ID : A_AC3
Duration : 1h 33mn
Bit rate mode : Constant
Bit rate : 320 Kbps
Channel(s) : 2 channels
Channel positions : Front: L R
Sampling rate : 48.0 KHz
Bit depth : 16 bits
Compression mode : Lossy
Stream size : 214 MiB (14%)
Title : Aвторский одноголосый - RussianGuy27

Скриншоты

Остаться в живых-2.2008

Остаться в живых: Воскрешение / Fritt vilt II Год выпуска: 2008
Страна: Норвегия
Слоган: «Marerittet Fortsetter 10.Oktober...»
Жанр: Ужасы, триллер
Продолжительность: 01:33:30
Перевод: Авторский одноголосый
Субтитры: Нет-Режиссёр: Матс Штенберг
Сценарист: Томас Молдстад
Продюсер: Кристиан Синкеруд, Мартин Сандлэнд, Томас Лёберг
Оператор: Андерс Флатлэнд
Композитор: Магнус Бейте
В ролях: Ингрид Болсай Бердал, Марта Снорресдоттер Ровик, Фридтьов Сохейм , Йоханна Мерк, Пер Шаанинг, Андреас Каппелен, Матс Элдоен, Рольф Кристиан Ларсен, Тони Лунде, Виктория Винги-Описание: Главная героиня, Жанник, просыпается в больнице. Все ее друзья мертвы. Идя через темные больничные коридоры, она думает, что ей больше ничего не угрожает. Но кошмар еще не закончился!-Мировая премьера: 10 октября 2008-Качество: HQRip-AVC
Формат: MKV
Видео кодек: H264 (AVC)
Аудио кодек: AC3 (Dolby Digital)
Видео: 1024x416 (2.35), 24.000 fps, х264, 1936 kbps
Аудио #1: 48 kHz, 3/2 (L,C,R,l,r) + LFE ch, ~384.00 kbps avg [Авторский одноголосый (RussianGuy27)]
Субтитры: Нет

MediaInfo

General
Unique ID : 209447011184917730743950895843739265437 (0x9D9206ED6D3D1658B07F52F234F5699D)
Complete name : Fritt vilt-2.mkv
Format : Matroska
Format version : Version 2
File size : 1.45 GiB
Duration : 1h 29mn
Overall bit rate : 2 318 Kbps
Movie name : Fritt vilt-2.chopper887.mkv
Encoded date : UTC 2011-03-06 12:40:30
Writing application : mkvmerge v4.4.0 ('Die Wiederkehr') built on Nov 7 2010 22:17:07
Writing library : libebml v1.0.0 + libmatroska v1.0.0
Video
ID : 1
Format : AVC
Format/Info : Advanced Video Codec
Format profile : High@L4.1
Format settings, CABAC : Yes
Format settings, ReFrames : 6 frames
Muxing mode : Header stripping
Codec ID : V_MPEG4/ISO/AVC
Duration : 1h 29mn
Bit rate : 1 936 Kbps
Width : 1 024 pixels
Height : 416 pixels
Display aspect ratio : 2.462
Frame rate : 24.000 fps
Color space : YUV
Chroma subsampling : 4:2:0
Bit depth : 8 bits
Scan type : Progressive
Bits/(Pixel*Frame) : 0.189
Stream size : 1.18 GiB (81%)
Title : Fritt vilt-2.chopper887.mkv
Writing library : x264 core 112 r1867 22bfd31
Encoding settings : cabac=1 / ref=6 / deblock=1:-2:-1 / analyse=0x3:0x133 / me=umh / subme=9 / psy=1 / psy_rd=1.00:0.10 / mixed_ref=1 / me_range=32 / chroma_me=0 / trellis=2 / 8x8dct=1 / cqm=0 / deadzone=21,11 / fast_pskip=0 / chroma_qp_offset=-3 / threads=3 / sliced_threads=0 / nr=0 / decimate=1 / interlaced=0 / constrained_intra=0 / bframes=9 / b_pyramid=2 / b_adapt=2 / b_bias=0 / direct=3 / weightb=1 / open_gop=0 / weightp=2 / keyint=250 / keyint_min=23 / scenecut=40 / intra_refresh=0 / rc_lookahead=80 / rc=2pass / mbtree=1 / bitrate=1936 / ratetol=1.0 / qcomp=0.70 / qpmin=10 / qpmax=51 / qpstep=4 / cplxblur=20.0 / qblur=0.5 / ip_ratio=1.40 / aq=1:1.00
Language : English
Audio
ID : 2
Format : AC-3
Format/Info : Audio Coding 3
Mode extension : CM (complete main)
Muxing mode : Header stripping
Codec ID : A_AC3
Duration : 1h 29mn
Bit rate mode : Constant
Bit rate : 384 Kbps
Channel(s) : 6 channels
Channel positions : Front: L C R, Side: L R, LFE
Sampling rate : 48.0 KHz
Bit depth : 16 bits
Compression mode : Lossy
Stream size : 246 MiB (17%)
Title : Авторский одноголосый - RussianGuy27

Скриншоты

Остаться в живых-3.2010

Остаться в живых 3 / Fritt vilt III Год выпуска: 2010
Страна: Норвегия
Жанр: Ужасы, триллер
Продолжительность: 01:37:37
Перевод: Авторский одноголосый
Режиссёр: Миккел Бренне Сандемус
Сценарист: Педер Фюглегуд, Ларс Гудместад
Продюсер: Кристиан Синкеруд, Мартин Сандлэнд, Арье Хейденстром
Оператор: Эри Уилли
Композитор: Магнус Бейте
В ролях: Ида Мари Бакеруд, Ким С. Фалк Йоргенсен, Пал Стокка, Джули Расти, Артур Бернинг, Стурла Руй, Нилс Джонсон
Субтитры: Нет-Описание: Продолжение душераздирающей истории о резне, учиненной жестоким и кровожадным маньяком, среди холодных норвежских снегов. Выживет ли кто-нибудь из главных героев после новой встречи с серийным убийцей, орудующим ледорубом?-Мировая премьера: 15 октября 2010
Бюджет: NOK 17 100 000-Качество: HQRip-AVC
Формат: MKV
Видео кодек: H264 (AVC)
Аудио кодек: AC3 (Dolby Digital)
Видео: 1024x432 (2.35), 24.000 fps, х264, 1748 kbps
Аудио #1: 48 kHz, 3/2 (L,C,R,l,r) + LFE ch, ~384.00 kbps avg [Авторский одноголосый (RussianGuy27)]
Субтитры: Нет-

MediaInfo

General
Unique ID : 187074352354398015776393910306231573166 (0x8CBD35AF121FE2BCB82F03D6B4CC5AAE)
Complete name : Fritt vilt-3.mkv
Format : Matroska
Format version : Version 2
File size : 1.45 GiB
Duration : 1h 37mn
Overall bit rate : 2 132 Kbps
Movie name : Fritt vilt-3.chopper887
Encoded date : UTC 2011-03-06 09:09:14
Writing application : mkvmerge v4.4.0 ('Die Wiederkehr') built on Nov 7 2010 22:17:07
Writing library : libebml v1.0.0 + libmatroska v1.0.0
Video
ID : 1
Format : AVC
Format/Info : Advanced Video Codec
Format profile : High@L4.1
Format settings, CABAC : Yes
Format settings, ReFrames : 10 frames
Muxing mode : Header stripping
Codec ID : V_MPEG4/ISO/AVC
Duration : 1h 37mn
Bit rate : 1 748 Kbps
Width : 1 024 pixels
Height : 432 pixels
Display aspect ratio : 2.35:1
Frame rate : 24.000 fps
Color space : YUV
Chroma subsampling : 4:2:0
Bit depth : 8 bits
Scan type : Progressive
Bits/(Pixel*Frame) : 0.165
Stream size : 1.16 GiB (80%)
Title : Fritt vilt-3.chopper887
Writing library : x264 core 112 r1867 22bfd31
Encoding settings : cabac=1 / ref=10 / deblock=1:-2:-1 / analyse=0x3:0x133 / me=umh / subme=9 / psy=1 / psy_rd=1.00:0.15 / mixed_ref=1 / me_range=32 / chroma_me=0 / trellis=2 / 8x8dct=1 / cqm=0 / deadzone=21,11 / fast_pskip=0 / chroma_qp_offset=-3 / threads=3 / sliced_threads=0 / nr=0 / decimate=1 / interlaced=0 / constrained_intra=0 / bframes=9 / b_pyramid=2 / b_adapt=2 / b_bias=0 / direct=3 / weightb=1 / open_gop=0 / weightp=2 / keyint=250 / keyint_min=23 / scenecut=40 / intra_refresh=0 / rc_lookahead=80 / rc=2pass / mbtree=1 / bitrate=1748 / ratetol=1.0 / qcomp=0.70 / qpmin=10 / qpmax=51 / qpstep=4 / cplxblur=20.0 / qblur=0.5 / ip_ratio=1.40 / aq=1:1.00
Language : English
Audio
ID : 2
Format : AC-3
Format/Info : Audio Coding 3
Mode extension : CM (complete main)
Muxing mode : Header stripping
Codec ID : A_AC3
Duration : 1h 37mn
Bit rate mode : Constant
Bit rate : 384 Kbps
Channel(s) : 6 channels
Channel positions : Front: L C R, Side: L R, LFE
Sampling rate : 48.0 KHz
Bit depth : 16 bits
Compression mode : Lossy
Stream size : 268 MiB (18%)
Title : Авторский одноголосый-RussianGuy27

Скриншоты

[Торрент-статистика]
[Профиль]  [ЛС] 
Показать сообщения:    
Ответить на тему

Текущее время: Сегодня 14:05

Часовой пояс: GMT + 4



Вы не можете начинать темы
Вы не можете отвечать на сообщения
Вы не можете редактировать свои сообщения
Вы не можете удалять свои сообщения
Вы не можете голосовать в опросах
Вы не можете прикреплять файлы к сообщениям
Вы не можете скачивать файлы