Террор / The Terror [2018] (Сезон 1 , Серия 1-7 из 10) (Милантс, Эдвард Бергер) [Ужасы, драма , WEB-DLRip][1080p][LostFilm+NewStudiо+AlexFilm+ProfixMedia+Kubik V Kube+Eng]+[Subs ENG+Rus]

Ответить на тему
 
Автор
Сообщение

Враг Нароода ®

Пол:

Стаж: 3 месяца 20 дней

Сообщений: 22

Репутация: 14 [+] [-]

Откуда: Красногорск

Пост 03-Апр-2018 19:31

[Цитировать] 

-- --Террор / The Terror Сезон 1 , Серия 1-7 из 10 -- --Год выпуска: 2018
Выпущено: США , EMJAG Productions, Entertainment 360, Scott Free Productions
Жанр: Ужасы, драма
Продолжительность: 00:45:00
Сезон:1
Серия:1-7
Количество серий в сезоне: 10--Озвучка1: Профессиональный многоголосый - LostFilm -Русский
Озвучка2: Профессиональный многоголосый - NewStudiо -Русский
Озвучка3: Профессиональный многоголосый - AlexFilm -Русский
Озвучка 4: Профессиональный многоголосый -ProfixMedia-Русский
Озвучка 5:Профессиональный двухголосый -Кубик в Кубе-Русский
Озвучка 6: Профессиональный многоголосый - Английский - Оригинал
Субтитры: : Russian, English, English SDH --Официальный сайт
MDB [img]https://rating.kinopoisk.ru/738318.gif[/img]--Режиссеры:
Милантс, Эдвард Бергер, Серджо Мимика-Геззан--Актеры:
Джаред Харрис, Киаран Хайндс, Тобайас Мензис, Крис Корригэн, Иэн Харт, Кристос Лоутон, Мэттью МакНалти, Адам Нагаитис, Нив Нилсен, Пол Рэди, Себастьян Арместо, Эдвард Эшли, Майки Коллинз, Кевин Гатри, Аарон Джеффкот, Дэвид Уолмсли, Гай Фолкнер, Лиам Гэрриган, Чарли Келли, Кэролайн Болтон-- В 1845 году экспедиция под командованием опытного полярного исследователя сэра Джона Франклина отправляется на судах «Террор» и «Эребус» к северному побережью Канады на поиск северо-западного прохода из Атлантического океана в Тихий — и бесследно исчезает. Поиски ее затянулись на несколько десятилетий, сведения о ее судьбе собирались буквально по крупицам, и до сих пор картина происшедшего пестрит белыми пятнами.-- --Качество :WEB-DLRip 1080p
Формат: MKV
Видео кодек: H264
Видео: 6887Kбит/сек,1920х1080(16.9),в 23.976кадр/сек,AVC (High@L4)(CABAC/4 Ref Frames)--Аудио Кодек:AC3
[Аудио #1:AC3 640 Kbps, 48.0 KHz, 6 ch- LostFilm -Русский
Аудио #2:AC3 , 384 Kbps, 48.0 KHz, 6 ch- NewStudiо -Русский
Аудио #3:AC3 , 384 Kbps, 48.0 KHz, 6 ch- AlexFilm -Русский
Аудио #4:AC3 , 384 Kbps, 48.0 KHz, 6 ch- ProfixMedia -Русский
Аудио #5:AC3 , 384 Kbps, 48.0 KHz, 6 ch-Кубик в Кубе -Русский
Аудио #6: AC3, 640 Kbps, 48.0 KHz,6 ch - - English - Оригинал--

Доп. информация:

Звуковая дорожка сделана путем наложения чистого голоса озвучивателей на центральный канал оригинальной дорожки. Качество идентично звуковой дорожке.
--

Список эпизодов сезона


1 сезон 1 серия - Рывок - Go for Broke
1 сезон 2 серия - Резня - Gore
1 сезон 3 серия - Лестница - The Ladder
1 сезон 4 серия - Наказан, как мальчишка - Punished, as a Boy
1 сезон 5 серия - Не промажьте, ребята - First Shot a Winner, Lads
1 сезон 6 серия - Милосердие - A Mercy
1 сезон 7 серия - Страшный ужин - Horrible from Supper
--

MediaInfo сезона

Общее
Уникальный идентификатор : 317412137859232275337321734606835349275 (0xEECB5AA66575D1E7955B06F5B8E2F71B)
Полное имя : C:\Nikolai.Baranov & PIRATIYA\Террор ( The Terror)\The_Terror_S01_Н264_DD5.1_N.B_HD_1080_5xRus_Eng\The_Terror_S01E01_Н264_DD5.1_N.B_HD_1080_5xRus_Eng.mkv
Формат : Matroska
Версия формата : Version 4 / Version 2
Размер файла : 3,13 Гбайт
Продолжительность : 46 м. 8 с.
Режим общего битрейта : Переменный
Общий поток : 9707 Кбит/сек
Название фильма : The Terror S01E01 @ Nikolai.Baranov & PIRATIYA
Дата кодирования : UTC 2018-04-03 09:59:54
Программа кодирования : mkvmerge v22.0.0 ('At The End Of The World') 64-bit
Библиотека кодирования : libebml v1.3.5 + libmatroska v1.4.8
Видео
Идентификатор : 1
Формат : AVC
Формат/Информация : Advanced Video Codec
Профиль формата : High@L4
Настройки формата : CABAC / 4 Ref Frames
Параметр CABAC формата : Да
Параметр RefFrames формата : 4 кадра
Идентификатор кодека : V_MPEG4/ISO/AVC
Продолжительность : 46 м. 8 с.
Вид битрейта : Переменный
Битрейт : 6887 Кбит/сек
Максимальный битрейт : 15,0 Мбит/сек
Ширина : 1920 пикселей
Высота : 1080 пикселей
Соотношение сторон : 16:9
Режим частоты кадров : Постоянный
Частота кадров : 23,976 (24000/1001) кадра/сек
Цветовое пространство : YUV
Субдискретизация насыщенности : 4:2:0
Битовая глубина : 8 бит
Тип развёртки : Прогрессивная
Бит/(Пиксели*Кадры) : 0.139
Размер потока : 2,22 Гбайт (71%)
Заголовок : The_Terror_S01E01_Н264_DD5.1_N.B_HD_1080_5xRus_Eng
Язык : Russian
Default : Да
Forced : Нет
Цветовой диапазон : Limited
Основные цвета : BT.709
Характеристики трансфера : BT.709
Коэффициенты матрицы : BT.709
Аудио #1
Идентификатор : 5
Формат : AC-3
Формат/Информация : Audio Coding 3
Идентификатор кодека : A_AC3
Продолжительность : 46 м. 8 с.
Вид битрейта : Постоянный
Битрейт : 640 Кбит/сек
Каналы : 6 каналов
Расположение каналов : Front: L C R, Side: L R, LFE
Частота : 48,0 КГц
Частота кадров : 31,250 кадров/сек (1536 SPF)
Битовая глубина : 16 бит
Метод сжатия : С потерями
Размер потока : 211 Мбайт (7%)
Заголовок : MVO LostFilm @DD5.1 AC3, 640 Kbps, 48.0 KHz, 6 ch
Язык : Russian
ServiceKind/String : Complete Main
Default : Да
Forced : Нет
Аудио #2
Идентификатор : 6
Формат : AC-3
Формат/Информация : Audio Coding 3
Идентификатор кодека : A_AC3
Продолжительность : 46 м. 8 с.
Вид битрейта : Постоянный
Битрейт : 384 Кбит/сек
Каналы : 6 каналов
Расположение каналов : Front: L C R, Side: L R, LFE
Частота : 48,0 КГц
Частота кадров : 31,250 кадров/сек (1536 SPF)
Битовая глубина : 16 бит
Метод сжатия : С потерями
Размер потока : 127 Мбайт (4%)
Заголовок : MVO NewStudio @DD5.1 AC3, 384 Kbps, 48.0 KHz, 6 ch
Язык : Russian
ServiceKind/String : Complete Main
Default : Нет
Forced : Нет
Аудио #3
Идентификатор : 7
Формат : AC-3
Формат/Информация : Audio Coding 3
Идентификатор кодека : A_AC3
Продолжительность : 46 м. 8 с.
Вид битрейта : Постоянный
Битрейт : 384 Кбит/сек
Каналы : 6 каналов
Расположение каналов : Front: L C R, Side: L R, LFE
Частота : 48,0 КГц
Частота кадров : 31,250 кадров/сек (1536 SPF)
Битовая глубина : 16 бит
Метод сжатия : С потерями
Размер потока : 127 Мбайт (4%)
Заголовок : MVO AlexFilm @DD5.1 AC3, 384 Kbps, 48.0 KHz, 6 ch
Язык : Russian
ServiceKind/String : Complete Main
Default : Нет
Forced : Нет
Аудио #4
Идентификатор : 8
Формат : AC-3
Формат/Информация : Audio Coding 3
Идентификатор кодека : A_AC3
Продолжительность : 46 м. 8 с.
Вид битрейта : Постоянный
Битрейт : 384 Кбит/сек
Каналы : 6 каналов
Расположение каналов : Front: L C R, Side: L R, LFE
Частота : 48,0 КГц
Частота кадров : 31,250 кадров/сек (1536 SPF)
Битовая глубина : 16 бит
Метод сжатия : С потерями
Размер потока : 127 Мбайт (4%)
Заголовок : MVO ProfixMedia @DD5.1 AC3, 384 Kbps, 48.0 KHz, 6 ch
Язык : Russian
ServiceKind/String : Complete Main
Default : Нет
Forced : Нет
Аудио #5
Идентификатор : 9
Формат : AC-3
Формат/Информация : Audio Coding 3
Идентификатор кодека : A_AC3
Продолжительность : 46 м. 8 с.
Вид битрейта : Постоянный
Битрейт : 640 Кбит/сек
Каналы : 6 каналов
Расположение каналов : Front: L C R, Side: L R, LFE
Частота : 48,0 КГц
Частота кадров : 31,250 кадров/сек (1536 SPF)
Битовая глубина : 16 бит
Метод сжатия : С потерями
Размер потока : 211 Мбайт (7%)
Заголовок : Original@DD5.1 AC3 ,640 Kbps, 48.0 KHz, 6 ch
Язык : English
ServiceKind/String : Complete Main
Default : Нет
Forced : Нет
Аудио #6
Идентификатор : 10
Формат : AC-3
Формат/Информация : Audio Coding 3
Идентификатор кодека : A_AC3
Продолжительность : 46 м. 8 с.
Вид битрейта : Постоянный
Битрейт : 384 Кбит/сек
Каналы : 6 каналов
Расположение каналов : Front: L C R, Side: L R, LFE
Частота : 48,0 КГц
Частота кадров : 31,250 кадров/сек (1536 SPF)
Битовая глубина : 16 бит
Метод сжатия : С потерями
Размер потока : 127 Мбайт (4%)
Заголовок : MVO Kubik V Kube @DD5.1 AC3, 384 Kbps, 48.0 KHz, 6 ch
Язык : Russian
ServiceKind/String : Complete Main
Default : Нет
Forced : Нет
Текст #1
Идентификатор : 2
Формат : UTF-8
Идентификатор кодека : S_TEXT/UTF8
Идентификатор кодека/Информация : UTF-8 Plain Text
Продолжительность : 44 м. 28 с.
Битрейт : 93 бит/сек
ElementCount : 552
Размер потока : 30,4 Кбайт (0%)
Заголовок : Rus - Full | - PhysKids|
Язык : Russian
Default : Да
Forced : Нет
Текст #2
Идентификатор : 3
Формат : UTF-8
Идентификатор кодека : S_TEXT/UTF8
Идентификатор кодека/Информация : UTF-8 Plain Text
Продолжительность : 44 м. 26 с.
Битрейт : 54 бит/сек
ElementCount : 555
Размер потока : 17,9 Кбайт (0%)
Заголовок : Original - Full |
Язык : English
Default : Нет
Forced : Нет
Текст #3
Идентификатор : 4
Формат : UTF-8
Идентификатор кодека : S_TEXT/UTF8
Идентификатор кодека/Информация : UTF-8 Plain Text
Продолжительность : 45 м. 22 с.
Битрейт : 65 бит/сек
ElementCount : 724
Размер потока : 21,6 Кбайт (0%)
Заголовок : Original - SDH |
Язык : English
Default : Нет
Forced : Нет
Меню
00:00:00.000 : en:Глава 01 / en:Глава 01 / en:Глава 01 / en:Глава 01 / en:Глава 01 / en:Глава 01 / en:Глава 01 / en:Глава 01 / en:Глава 01 / en:Глава 01
--

Скриншоты

-- --Внимание! Раздача пополняется по мере выхода новых серий!--

Внимание! Раздача ведётся путём добавления новых серий!

Раздача ведётся путём добавления новых серий; при каждом добавлении создётся новый торрент.
Чтобы начать докачку новой серии, пользователям необходимо сделать следующее:
1. остановить скачивание,
2. удалить старый торрент у себя из клиента (старые серии удалять не надо),
3. скачать новый торрент и запустить его у себя в клиенте вместо старого, при этом указать клиенту путь в старую папку, куда и должно происходить скачивание новых серий.
Ваш клиент при этом должен произвести хеширование (проверку) старой папки (если не производит сам - помогите ему сделать это), и будет докачивать только те серии которых у вас ещё нет. Старые серии при этом не удаляются, а продолжают раздаваться!
Eсли вы уже удалили старые серии, то предотвратить повторную закачку старых серий можно, отжав галочку в соответсвующих местах при запуске нового торрента. По возможности, желательно не удалять старые серии как можно дольше, чтобы релизёр не столько продолжал раздавать старые серии, а смог сконцентрироваться на новых.
Совет для тех, кто не хочет ждать перехеширования:
Создайте ещё одну папку рядом с папкой сериала (рядом, а не в ней!!!). Каждую новую серию после удачной загрузки копируйте в новую папку так чтобы ваша основная папка всегда была пуста. Когда ваш новый торрент предложит вам закачать все файлы, выберете только последнюю. Для сидирования же укажите адрес новой папки.
Как закачать отдельный файл из торрента или докачать ранее пропущенные файлы торрента!

Как закачать отдельный файл

1. Открыть торрент
2. Снять галки с тех файлов торрента, которые мы не хотим закачивать. Оставляем только на нужных нам файлах (файле).
3. Нажать О.К.
В клиенте utorrent
Инструкция
1) Открыть торрент

2) Снять галки с тех файлов торрента, которые мы не хотим закачивать:
* либо вручную, снимая с каждого файла галку( скрин №1)
* либо, нажав кнопку "Снять метки (Select None)", сняв сразу со всех файлов(скрин №2)
№1

№2

Оставляем только на нужных нам файлах (файле).

3)Нажать О.К
-- -- --Внимание!!! 17.04. 2018. РАЗДАЧА ОБНОВЛЕНА. ДОБАВЛЕНА 6 - 7 СЕРИЯ. ОБНОВИТЕ ТОРЕНТ ФАЙЛ. ПРИЯТНОГО ПРОСМОТРА . --Релиз от: Nikolai.Baranov & PIRATIYA -- -- -- --

_________________

Легко быть оптимистом, когда судьба не валит с ног тяжелыми ударами, а лишь иногда легонько шлепает по заднице.
[Торрент-статистика]
[Профиль]  [ЛС] 
Показать сообщения:    
Ответить на тему

Текущее время: Сегодня 08:32

Часовой пояс: GMT + 4



Вы не можете начинать темы
Вы не можете отвечать на сообщения
Вы не можете редактировать свои сообщения
Вы не можете удалять свои сообщения
Вы не можете голосовать в опросах
Вы не можете прикреплять файлы к сообщениям
Вы не можете скачивать файлы