Робин из Шервуда / Робин Гуд / Robin of Sherwood / Сезон: 1-3 / Серии: 1-26 из 26 (Йен Шарп, Роберт Янг, Джеймс Аллен) [1984-1986, Великобритания, приключения, история, фэнтези, BDRip 720p] DVO (НТВ+) + DVO (Инис) + MVO (ЦТ) + Original + Rus Subs

Ответить на тему
 
Автор
Сообщение

06111986 ®

Пол:

Стаж: 3 месяца 25 дней

Сообщений: 4

Репутация: 0 [+] [-]

Пост 01-Апр-2018 15:34

[Цитировать] 

Робин из Шервуда / Робин Гуд / Robin of Sherwood Год выпуска: 1984-1986
Страна: Великобритания
Жанр: Приключения, история, фэнтези
Продолжительность: 26*~00:54:00
Перевод 1: Профессиональный (двухголосый закадровый) НТВ+
Перевод 2: Профессиональный (двухголосый закадровый) Инис
Перевод 3: Профессиональный (многоголосый закадровый) ЦТ
Субтитры: Русские, английские
Режиссер: Йен Шарп, Роберт Янг, Джеймс Аллен.
Авторы сценария: Ричард Карпентер, Энтони Хоровиц, Эндрю Маккаллох и Джон Флэнаган
В ролях: Майкл Прейд, Джейсон Коннери, Джуди Тротт, Роберт Эдди, Николас Грейс, Рэй Уинстон, Клайв Мантл, Питер Льюэллин Уильямс, Фил Роуз, Марк Райан, Филип Джексон и другие
Описание: Оригинальная трактовка древней легенды об английском народном герое, в которой Робин Гуд стоит на границе истории и сказки. С одной стороны - человек, сын своих отца и матери, с другой стороны - легенда, Человек-в-капюшоне, сын языческого бога Херна. Могущественные враги хотят уничтожить его и даже упоминание о нём, но столь же сильны и его друзья, и поэтому Шервудский лес всегда будет свободным!
Дополнительная информация:
В настоящей раздаче впервые собраны три существующих русских перевода: ЦТ (1987) - неполный, НТВ+ (1998), Инис (2008), а кроме того, помимо оригинальной дорожки (моно, аудиокомментарии создателей и актёров и дорожки, где представлена только музыка Clannad. Раздача также содержит три дорожки субтитров: основной русский перевод, русский перевод аудиокомментариев, английские субтитры.
Релиз: от darkmere
Качество: BDRip 720p
Контейнер: MKV
Видео: H.264, 960x720, 24 fps, 4.3 Mbps, 0.259 bit/pixel
Аудио 1: русский / НТВ+, AC3, 48.0 KHz, 2ch, 256 Kbps
Аудио 2: русский / Инис, AC3, 48.0 KHz, 2ch, 256 Kbps
Аудио 3: русский / ЦТ, AC3, 48.0 KHz, 2ch, 256 Kbps (только серии 1, 5, 6, 9, 13)
Аудио 4: английский / моно оригинал, AC3, 48.0 KHz, 2ch, 256 Kbps
Аудио 5: английский / аудиокомментарии, AC3, 48.0 KHz, 2ch, 256 Kbps (только серии 1, 2, 6, 11, 12, 14, 15, 17, 19, 20, 22, 25, 26)
Аудио 6: английский / только музыка, AC3, 48.0 KHz, 2ch, 256 Kbps (только серии 7, 8, 9, 10, 14, 16, 19)
Субтитры 1: русский основной, softsub (SRT)
Субтитры 2: русский - аудиокомментарии, softsub (SRT)
Субтитры 3: английский, softsub (SRT)

Список Серий

1. Робин Гуд и колдун, часть 1
2. Робин Гуд и колдун, часть 2
3. Ведьма из Элсдона
4. Семь бедных рыцарей из Акры
5. Алан из Долины
6. Королевский шут
7. Пророчество
8. Дети Израиля
9. Властелин леса
10. Колдовство
11. Мечи Вейланда, часть 1
12. Мечи Вейланда, часть 2
13. Заклятый враг
14. Сын Херна, часть 1
15. Сын Херна, часть 2
16. Сила Альбиона
17. Наследство
18. Крест святого Кирика
19. Шериф Ноттингемский
20. Кромм Круак
21. Предательство
22. Адам Белл
23. Претендент
24. Руттеркин
25. Час Волка, часть 1
26. Час Волка, часть 2

Media Info

Общее
Уникальный идентификатор : 234635594903109298560198737335624833469 (0xB0852BFCAD6A01FDB0A3D7DB7B8699BD)
Полное имя : D:\Видео\Robin.Of.Sherwood.720p\Robin.Of.Sherwood.S02E01.1985.rus.eng.mkv
Формат : Matroska
Версия формата : Version 2
Размер файла : 2,04 Гбайт
Продолжительность : 54 м.
Общий поток : 5326 Кбит/сек
Дата кодирования : UTC 2017-12-12 18:05:40
Программа кодирования : mkvmerge v3.0.0 ('Hang up your Hang-Ups') built on Dec 12 2009 15:20:35
Библиотека кодирования : libebml v0.7.9 + libmatroska v0.8.1
Видео
Идентификатор : 1
Формат : AVC
Формат/Информация : Advanced Video Codec
Профиль формата : High@L3.1
Параметр CABAC формата : Да
Параметр ReFrames формата : 4 кадра
Идентификатор кодека : V_MPEG4/ISO/AVC
Продолжительность : 54 м.
Битрейт : 4300 Кбит/сек
Ширина : 960 пикселей
Высота : 720 пикселей
Соотношение сторон : 4:3
Частота кадров : 24,000 кадра/сек
Цветовое пространство : YUV
Субдискретизация насыщенности : 4:2:0
Битовая глубина : 8 бит
Тип развёртки : Прогрессивная
Бит/(Пиксели*Кадры) : 0.259
Размер потока : 1,61 Гбайт (79%)
Библиотека кодирования : x264 core 130 r2273 b3065e6
Настройки программы : cabac=1 / ref=3 / deblock=1:0:0 / analyse=0x3:0x113 / me=umh / subme=9 / psy=1 / psy_rd=1.00:0.00 / mixed_ref=1 / me_range=16 / chroma_me=1 / trellis=1 / 8x8dct=1 / cqm=0 / deadzone=21,11 / fast_pskip=1 / chroma_qp_offset=-2 / threads=6 / lookahead_threads=1 / sliced_threads=0 / nr=0 / decimate=1 / interlaced=0 / bluray_compat=0 / constrained_intra=0 / bframes=3 / b_pyramid=2 / b_adapt=1 / b_bias=0 / direct=1 / weightb=1 / open_gop=0 / weightp=2 / keyint=240 / keyint_min=24 / scenecut=40 / intra_refresh=0 / rc_lookahead=40 / rc=2pass / mbtree=1 / bitrate=4300 / ratetol=1.0 / qcomp=0.60 / qpmin=0 / qpmax=69 / qpstep=4 / cplxblur=20.0 / qblur=0.5 / ip_ratio=1.40 / aq=1:1.00
Язык : English
Default : Нет
Forced : Да
Аудио #1
Идентификатор : 2
Формат : AC-3
Формат/Информация : Audio Coding 3
Расширение режима : CM (complete main)
Параметр Endianness формата : Big
Идентификатор кодека : A_AC3
Продолжительность : 54 м.
Вид битрейта : Постоянный
Битрейт : 256 Кбит/сек
Каналы : 2 канала
Расположение каналов : Front: L R
Частота : 48,0 КГц
Битовая глубина : 16 бит
Метод сжатия : С потерями
Размер потока : 100 Мбайт (5%)
Заголовок : НТВ+ (1998)
Язык : Russian
Default : Нет
Forced : Да
Аудио #2
Идентификатор : 3
Формат : AC-3
Формат/Информация : Audio Coding 3
Расширение режима : CM (complete main)
Параметр Endianness формата : Big
Идентификатор кодека : A_AC3
Продолжительность : 54 м.
Вид битрейта : Постоянный
Битрейт : 256 Кбит/сек
Каналы : 2 канала
Расположение каналов : Front: L R
Частота : 48,0 КГц
Битовая глубина : 16 бит
Метод сжатия : С потерями
Размер потока : 100 Мбайт (5%)
Заголовок : Инис (2008)
Язык : Russian
Default : Нет
Forced : Нет
Аудио #3
Идентификатор : 4
Формат : AC-3
Формат/Информация : Audio Coding 3
Расширение режима : CM (complete main)
Параметр Endianness формата : Big
Идентификатор кодека : A_AC3
Продолжительность : 54 м.
Вид битрейта : Постоянный
Битрейт : 256 Кбит/сек
Каналы : 2 канала
Расположение каналов : Front: L R
Частота : 48,0 КГц
Битовая глубина : 16 бит
Метод сжатия : С потерями
Размер потока : 100 Мбайт (5%)
Заголовок : English (original)
Язык : English
Default : Нет
Forced : Нет
Аудио #4
Идентификатор : 5
Формат : AC-3
Формат/Информация : Audio Coding 3
Расширение режима : CM (complete main)
Параметр Endianness формата : Big
Идентификатор кодека : A_AC3
Продолжительность : 54 м.
Вид битрейта : Постоянный
Битрейт : 256 Кбит/сек
Каналы : 2 канала
Расположение каналов : Front: L R
Частота : 48,0 КГц
Битовая глубина : 16 бит
Метод сжатия : С потерями
Размер потока : 100 Мбайт (5%)
Заголовок : Music only
Default : Нет
Forced : Нет
Текст #1
Идентификатор : 6
Формат : UTF-8
Идентификатор кодека : S_TEXT/UTF8
Идентификатор кодека/Информация : UTF-8 Plain Text
Заголовок : Русский перевод (основной)
Язык : Russian
Default : Нет
Forced : Нет
Текст #2
Идентификатор : 7
Формат : UTF-8
Идентификатор кодека : S_TEXT/UTF8
Идентификатор кодека/Информация : UTF-8 Plain Text
Заголовок : English (original)
Язык : English
Default : Нет
Forced : Нет

Скриншоты

[ [ [
[Торрент-статистика]
[Профиль]  [ЛС] 
Показать сообщения:    
Ответить на тему

Текущее время: Сегодня 16:07

Часовой пояс: GMT + 4



Вы не можете начинать темы
Вы не можете отвечать на сообщения
Вы не можете редактировать свои сообщения
Вы не можете удалять свои сообщения
Вы не можете голосовать в опросах
Вы не можете прикреплять файлы к сообщениям
Вы не можете скачивать файлы