Lipps, Inc. - Mouth To Mouth (Remastered, Bonus Tracks) - 2012, (Disco/Pop) ,FLAC (image+.cue), lossless

Ответить на тему
 
Автор
Сообщение

Admiral ®

Пол:

Стаж: 7 лет 3 месяца

Сообщений: 603

Репутация: 146 [+] [-]

Пост 25-Мар-2018 22:56

[Цитировать] 

★●• Lipps, Inc. - Mouth To Mouth (Remastered, Bonus Tracks) •●★
Жанр: Disco/Pop
Страна-производитель диска: United Kingdom
Год издания: 2012
Издатель (лейбл): Big Break Records, UK
Номер по каталогу: CDBBR 0130
Аудиокодек: FLAC (*.flac)
Тип рипа: image+.cue
Битрейт аудио: lossless
Продолжительность: 43:44
Наличие сканов в содержимом раздачи: да
Источник (релизер):
Mouth To Mouth:
01. Funkytown [0:07:50.18]
02. All Night Dancing [0:08:21.01]
03. Rock It [0:05:42.25]
04. Power [0:08:19.16]
05. Funkytown (Single Version) [0:04:02.26]
06. All Niight Dancing (Single Version) [0:03:11.62]
07. Rock It (Single Version) [0:03:20.66]
08. Power (Single Version) [0:02:56.42]

---

•••EAC•••

Exact Audio Copy V1.0 beta 3 from 29. August 2011
EAC extraction logfile from 27. October 2012, 18:36
Lipps Inc / Mouth To Mouth
Used drive : Optiarc BD RW BD-5300S Adapter: 3 ID: 0
Read mode : Secure
Utilize accurate stream : Yes
Defeat audio cache : Yes
Make use of C2 pointers : No
Read offset correction : 6
Overread into Lead-In and Lead-Out : No
Fill up missing offset samples with silence : Yes
Delete leading and trailing silent blocks : No
Null samples used in CRC calculations : Yes
Used interface : Installed external ASPI interface
Used output format : User Defined Encoder
Selected bitrate : 1024 kBit/s
Quality : High
Add ID3 tag : No
Command line compressor : C:\Program Files (x86)\Exact Audio Copy\Flac\flac.exe
Additional command line options : -8 -V -T "Date=%year%" -T "Genre=%genre%" -T "COMMENT=ripped by bvstudio®" %source%
TOC of the extracted CD
Track | Start | Length | Start sector | End sector
---------------------------------------------------------
1 | 0:00.00 | 7:50.18 | 0 | 35267
2 | 7:50.18 | 8:21.01 | 35268 | 72843
3 | 16:11.19 | 5:42.25 | 72844 | 98518
4 | 21:53.44 | 8:19.16 | 98519 | 135959
5 | 30:12.60 | 4:02.26 | 135960 | 154135
6 | 34:15.11 | 3:11.62 | 154136 | 168522
7 | 37:26.73 | 3:20.66 | 168523 | 183588
8 | 40:47.64 | 2:56.42 | 183589 | 196830
Range status and errors
Selected range
Filename F:\Lipps Inc - Mouth To Mouth - 1979\Lipps Inc - Mouth To Mouth.wav
Peak level 96.6 %
Extraction speed 7.0 X
Range quality 100.0 %
Test CRC 9CEDF1CF
Copy CRC 9CEDF1CF
Copy OK
No errors occurred
AccurateRip summary
Track 1 not present in database
Track 2 not present in database
Track 3 not present in database
Track 4 not present in database
Track 5 not present in database
Track 6 not present in database
Track 7 not present in database
Track 8 not present in database
None of the tracks are present in the AccurateRip database
End of status report
==== Log checksum B34D5A56E336ECAF12453DD159CE67FCE67671344FEE576FB3B3ED07E564E299 ====

•••Dynamic Range Meter•••

foobar2000 1.1.16 beta 2 / Dynamic Range Meter 1.1.1
log date: 2012-10-27 18:38:34
--------------------------------------------------------------------------------
Analyzed: Lipps Inc / Mouth To Mouth
--------------------------------------------------------------------------------
DR Peak RMS Duration Track
--------------------------------------------------------------------------------
DR11 -0.30 dB -12.82 dB 7:50 01-Funkytown
DR12 -0.30 dB -13.52 dB 8:21 02-All Night Dancing
DR12 -0.30 dB -13.78 dB 5:42 03-Rock It
DR13 -0.30 dB -14.01 dB 8:19 04-Power
DR11 -0.30 dB -12.14 dB 4:02 05-Funkytown (Single Version)
DR12 -0.30 dB -13.67 dB 3:12 06-All Niight Dancing (Single Version)
DR12 -0.30 dB -13.42 dB 3:21 07-Rock It (Single Version)
DR13 -0.35 dB -14.45 dB 2:57 08-Power (Single Version)
--------------------------------------------------------------------------------
Number of tracks: 8
Official DR value: DR12
Samplerate: 44100 Hz
Channels: 2
Bits per sample: 16
Bitrate: 896 kbps
Codec: FLAC
================================================================================

---
[Торрент-статистика]
[Профиль]  [ЛС] 
Показать сообщения:    
Ответить на тему

Текущее время: Сегодня 05:32

Часовой пояс: GMT + 4



Вы не можете начинать темы
Вы не можете отвечать на сообщения
Вы не можете редактировать свои сообщения
Вы не можете удалять свои сообщения
Вы не можете голосовать в опросах
Вы не можете прикреплять файлы к сообщениям
Вы не можете скачивать файлы