Строгий Выговор (Сергей Целиков) [2016 г., Короткометражка, драма, HDRip]

Ответить на тему
 
Автор
Сообщение

SaluteMe ®

Стаж: 3 месяца 14 дней

Сообщений: 1

Репутация: 0 [+] [-]

Пост 12-Янв-2018 03:50

[Цитировать] 

Строгий Выговор
Год выпуска: 2016
Страна: Россия
Жанр: Короткометражка, драма
Продолжительность: 00:20:09
Режиссер: Сергей Целиков
В ролях: Владиcлав Кузнецов, Александр Городиский, Борис Полушев, Владимир Брынько, Владимир Василатов, Алексей Дронов, Владимир Ануфриев, Николай Постнов, Олег Кабаргин, Михаил Бакурский, Игорь Пименов, Юрий Фомин, Павел Кальдин, Юлия Кобец, Дмитрий Авдеенко, Юрий Морозов
Описание: Морская академия. Отличник Саша Цаплин постигает азы морского ремесла, которое кроется где-то между мытьем полов и мечтами о прохождении летней практики на греческом судне. Рутину учебной недели нарушает появление его мамы с тортиком в руках. Курсанты узнают, что у Саши сегодня день рождения. Саша нацелен на чаепитие, но его друзья настаивают на покупке спиртного. Курсанты Лобанов и Морозов, у которых больше выговоров, чем пятерок, уговаривают Цаплина на авантюру. Однако ее ждет совершенно неожиданный исход. В результате под угрозой не только будущее курсантов, но и их дружба.
Доп. информация:
Оператор: Сергей Пчелинцев
Композитор: Василий Филатов
Художник: Ольга Бондарева
Монтаж: Сергей Целиков
Между фильмом и судьбой режиссера Сергея Целикова глубокая и сложная связь. В основу сюжета лег реальный случай из жизни Сергея, произошедший с ним во время обучения в морской академии. После того как из-за собственной глупости молодой курсант чуть было не оказался отчислен из стен альма-матер, ему пришлось повзрослеть и посмотреть на многие вещи под критическим углом. Результатом этого анализа был поиск себя, а подростковый романтизм сменила юношеская целеустремленность. Поиски, отправной точкой которых послужила рассказанная в фильме история, в конечном итоге сняли с Сергея униформу моряка и усадили его в кресло режиссера. История ждала своего часа, и совершенно логичным завершением стало ее воплощение на экране.
Тип релиза: HDRip
Контейнер: MPEG
Видео кодек: Другой MPEG4
Аудио кодек: AAC
Видео: MPEG4, 1920x1080, 16:9, 25,000 кадров/сек, 17,1 Мбит/сек
Аудио: Русский, AAC, 48,0 КГц, 320 Кбит/сек, Front: L R

MediaInfo

Общее
Полное имя : C:\Strogiy.Vigovor(2016)(dir.SergeyTselikov).mp4
Формат : MPEG-4
Профиль формата : Base Media / Version 2
Идентификатор кодека : mp42 (mp42/avc1)
Размер файла : 2,46 Гбайт
Продолжительность : 20 м. 9 с.
Общий поток : 17,4 Мбит/сек
Дата кодирования : UTC 2016-12-28 13:51:44
Дата пометки : UTC 2017-02-10 08:12:52
Видео
Идентификатор : 2
Формат : AVC
Формат/Информация : Advanced Video Codec
Профиль формата : Main@L4
Настройки формата : 2 Ref Frames
Параметр CABAC формата : Нет
Параметр RefFrames формата : 2 кадра
Параметр GOP формата : M=2, N=60
Идентификатор кодека : avc1
Идентификатор кодека/Информация : Advanced Video Coding
Продолжительность : 20 м. 9 с.
Битрейт : 17,1 Мбит/сек
Ширина : 1920 пикселей
Высота : 1080 пикселей
Соотношение сторон : 16:9
Режим частоты кадров : Постоянный
Частота кадров : 25,000 кадров/сек
Цветовое пространство : YUV
Субдискретизация насыщенности : 4:2:0
Битовая глубина : 8 бит
Тип развёртки : Прогрессивная
Бит/(Пиксели*Кадры) : 0.330
Размер потока : 2,41 Гбайт (98%)
Заголовок : Обработчик видео Apple
Язык : English
Дата кодирования : UTC 2016-12-28 13:51:45
Дата пометки : UTC 2016-12-28 14:14:59
Цветовой диапазон : Limited
Основные цвета : BT.709
Характеристики трансфера : BT.709
Коэффициенты матрицы : BT.709
Аудио
Идентификатор : 1
Формат : AAC
Формат/Информация : Advanced Audio Codec
Профиль формата : LC
Идентификатор кодека : mp4a-40-2
Продолжительность : 20 м. 9 с.
Вид битрейта : Постоянный
Битрейт : 320 Кбит/сек
Каналы : 2 канала
Расположение каналов : Front: L R
Частота : 48,0 КГц
Частота кадров : 46,875 кадров/сек (1024 SPF)
Метод сжатия : С потерями
Размер потока : 46,2 Мбайт (2%)
Заголовок : Обработчик звука Apple
Язык : English
Дата кодирования : UTC 2016-12-28 13:51:45
Дата пометки : UTC 2016-12-28 14:14:59

Скриншоты




[Торрент-статистика]
[Профиль]  [ЛС] 
Показать сообщения:    
Ответить на тему

Текущее время: Сегодня 03:13

Часовой пояс: GMT + 4



Вы не можете начинать темы
Вы не можете отвечать на сообщения
Вы не можете редактировать свои сообщения
Вы не можете удалять свои сообщения
Вы не можете голосовать в опросах
Вы не можете прикреплять файлы к сообщениям
Вы не можете скачивать файлы