Движение вверх (Антон Мегердичев) [2017 г., Спорт, Драма, TeleSynch]

Ответить на тему
 
Автор
Сообщение

diim ®

Пол:

Стаж: 2 года 11 месяцев

Сообщений: 1035

Репутация: 112 [+] [-]

Пост 04-Янв-2018 20:07

[Цитировать] 

Движение вверх
Год выпуска: 2017
Страна: Россия
Жанр: Спорт, Драма
Продолжительность: 02:06:27
Перевод: Не требуется
Режиссер: Антон Мегердичев
В ролях: Владимир Машков, Андрей Смоляков, Иван Колесников, Кирилл Зайцев, Джон Сэвэдж, Марат Башаров, Александра Ревенко, Виктория Толстоганова, Сергей Гармаш, Джеймс Тратас
Возраст: 6+ (зрителям, достигшим 6 лет)
Дата российской премьеры: 28 декабря 2017, «Централ Партнершип»
Описание: Есть победы, которые меняют ход истории. Победы духа, победы страны, победы всего мира. Таким триумфом стали легендарные «три секунды» — выигрыш сборной СССР по баскетболу на роковой мюнхенской Олимпиаде 1972г. Впервые за 36 лет была повержена «непобедимая» команда США. Никто даже помыслить не мог о том, что это возможно — обыграть великолепных непогрешимых американцев на Олимпийских играх! Никто, кроме советских баскетболистов (русских и грузин, украинцев и казахов, белорусов и литовцев).
Когда проигрыш означал поражение страны, когда нужно было выходить и бороться в раскаленной обстановке из-за произошедшего теракта, великий тренер сборной СССР был готов на все, лишь бы помочь своим подопечным разбить американский миф о непотопляемой команде мечты. Ведь он знал, что создал самую сильную сборную на планете, и в начале заставил поверить в это своих игроков, а затем весь мир.

Mediainfo:

Общее
Уникальный идентификатор : 192272107593552008508683310417214783608 (0x90A642CD851FFE87A29DFAE4B0D94078)
Полное имя : D:\Фильмы\Dvijenie.vverh.2017.TS.720p.mkv
Формат : Matroska
Версия формата : Version 2
Размер файла : 3,16 Гбайт
Продолжительность : 2 ч. 6 м.
Режим общего битрейта : Переменный
Общий поток : 3580 Кбит/сек
Дата кодирования : UTC 2017-12-29 16:03:16
Программа кодирования : mkvmerge v8.3.0 ('Over the Horizon') 64bit
Библиотека кодирования : libebml v1.3.1 + libmatroska v1.4.2
Видео
Идентификатор : 1
Формат : AVC
Формат/Информация : Advanced Video Codec
Профиль формата : High@L4.1
Настройки формата : CABAC / 12 Ref Frames
Параметр CABAC формата : Да
Параметр RefFrames формата : 12 кадров
Идентификатор кодека : V_MPEG4/ISO/AVC
Продолжительность : 2 ч. 6 м.
Вид битрейта : Переменный
Битрейт : 3194 Кбит/сек
Максимальный битрейт : 3400 Кбит/сек
Ширина : 1280 пикселей
Высота : 528 пикселей
Соотношение сторон : 2,40:1
Режим частоты кадров : Постоянный
Частота кадров : 23,976 (24000/1001) кадра/сек
Стандарт вещания : Component
Цветовое пространство : YUV
Субдискретизация насыщенности : 4:2:0
Битовая глубина : 8 бит
Тип развёртки : Прогрессивная
Бит/(Пиксели*Кадры) : 0.197
Размер потока : 2,82 Гбайт (89%)
Default : Да
Forced : Нет
Цветовой диапазон : Limited
Основные цвета : BT.709
Характеристики трансфера : BT.709
Коэффициенты матрицы : BT.709
Аудио
Идентификатор : 2
Формат : AC-3
Формат/Информация : Audio Coding 3
Идентификатор кодека : A_AC3
Продолжительность : 2 ч. 6 м.
Вид битрейта : Постоянный
Битрейт : 384 Кбит/сек
Каналы : 2 канала
Расположение каналов : Front: L R
Частота : 48,0 КГц
Частота кадров : 31,250 кадров/сек (1536 SPF)
Битовая глубина : 16 бит
Метод сжатия : С потерями
Размер потока : 347 Мбайт (11%)
ServiceKind/String : Complete Main
Default : Да
Forced : Нет
Тип релиза: TeleSynch
Контейнер: MKV
Видео кодек: H264 (AVC)
Аудио кодек: AC3 (Dolby Digital)
Видео: Видео: AVC/H.264, 1280x528 (2,40:1), ~3194 Kbps, 23,976 fps
Аудио: Аудио: AC3, 2 ch, 384 Kbps

Скриншоты

[Торрент-статистика]
[Профиль]  [ЛС] 
Показать сообщения:    
Ответить на тему

Текущее время: Сегодня 05:51

Часовой пояс: GMT + 4



Вы не можете начинать темы
Вы не можете отвечать на сообщения
Вы не можете редактировать свои сообщения
Вы не можете удалять свои сообщения
Вы не можете голосовать в опросах
Вы не можете прикреплять файлы к сообщениям
Вы не можете скачивать файлы