Каратель / The Punisher [2017] (Сезон 1 , Серия 1- 13 из 13) (Энди Годдард, Марк Йобст) [Фантастика, боевик, триллер, драма, криминал, приключения, WEB-DLRip][1080p][LostFilm+AlexFilm+ BaibaKo+NewStudiо+Kubik V Kube+Eng]+[Subs Rus , ENG]

Ответить на тему
 
Автор
Сообщение

Враг Нароода ®

Пол:

Стаж: 6 месяцев 19 дней

Сообщений: 29

Репутация: 14 [+] [-]

Откуда: Красногорск

Пост 03-Янв-2018 15:53

[Цитировать] 

-- --Каратель / The Punisher Сезон 1 , Серия 1- 13 из 13-- --Год выпуска: 2017
Выпущено: США , Marvel Television
Жанр: Фантастика, боевик, триллер, драма, криминал, приключения
Продолжительность: 00:50:00
Сезон:1
Серия: 1- 13
Количество серий в сезоне: 13--Озвучка 1: Профессиональный многоголосый - LostFilm - Русский
Озвучка 2: Профессиональный многоголосый - AlexFilm - Русский
Озвучка 3: Профессиональный многоголосый - BaibaKo- Русский
Озвучка 4: Профессиональный многоголосый - NewStudiо - Русский
Озвучка 5: Профессиональный многоголосый - Kubik V Kube - Русский
Озвучка 8: Профессиональный многоголосый -Английский - Оригинал
Субтитры: (Russian) , English SDH
--Официальный сайт
MDB [img]https://rating.kinopoisk.ru/978853.gif[/img]--Режиссеры:
Энди Годдард, Марк Йобст, Кари Скогланд--В ролях: Джон Бернтал, Джейсон Р. Мур, Эбон Мосс-Бакрак, Майкл Натансон, Джейми Рэй Ньюман, Эмбер Роуз Рева, Пол Шульц, Даниэль Уэббер, Дебора Энн Уолл-- После того, как семья Фрэнка Касла была убита во время перестрелки нескольких банд Нью-Йорка, он решает отомстить и начинает охоту на преступников города. В преступном мире он становится известен как Каратель..-- --Качество :WEB-DLRip 1080p
Формат: MKV
Видео кодек: H264
Видео: 13,2Мбит/сек,1920х1080(16.9), в 23.976кадр/сек,AVC (High@L4.1)(CABAC/4 Ref Frames)--Аудио Кодек:AC3
Аудио #1:AC3 , 640 Kbps, 48.0 KHz, 6 ch- -LostFilm-Русский
Аудио #2:AC3 , 384 Kbps, 48.0 KHz, 6 ch- -AlexFilm-Русский
Аудио #3: AC3, 384 Kbps, 48.0 KHz, 6 ch - BaibaKo-Русский
Аудио #4: AC3, 384 Kbps, 48.0 KHz, 6 ch - NewStudiо-Русский
Аудио #5: AC3, 384 Kbps, 48.0 KHz, 6 ch - Kubik V Kube-Русский
Аудио #8: AC3, 640 Kbps, 48.0 KHz,6 ch - - English-Английский -Оригинал--

Доп. информация:

Звуковая дорожка сделана путем наложения чистого голоса озвучивателей на центральный канал оригинальной дорожки. Качество идентично звуковой дорожке.
--

Список эпизодов сезона


1 сезон 1 серия - 3 часа ночи - 3AM
1 сезон 2 серия - Два мертвеца - Two Dead Men
1 сезон 3 серия - Кандагар - Kandahar
1 сезон 4 серия - Пополнение запасов - Resupply
1 сезон 5 серия - Ганнэр - Gunner
1 сезон 6 серия - Козел Иуды - The Judas Goat
1 сезон 7 серия - Перекрестие - Crosshairs
1 сезон 8 серия - Холодное оружие - Cold Steel
1 сезон 9 серия - Вперед, на врага - Front Toward Enemy
1 сезон 10 серия - Мораль порочных - Virtue of the Vicious
1 сезон 11 серия - Опасность близко - Danger Close
1 сезон 12 серия - Дом - Home
1 сезон 13 серия - Помни о смерти - Memento Mori
--

MediaInfo сезона

Общее
Уникальный идентификатор : 181793868752845800512085954771581779747 (0x88C439BDE353B4E08ED216E033E1BF23)
Полное имя : C:\ХОББИ\ПИРАТИЯ(PIRATIYA)\КАРАТЕЛЬ (The Punisher)\THE_PUNISHER_2017_S01_Rus_Eng[LostFilm_ AlexFilm_ BaibaKo_NewStudio_Kubik V Kube]]_Н264_N.B_HD_1080\Marvels_The_Punisher_S01E01_5xRus_Eng_Н264_DD5.1_N.B_HD_1080p.mkv
Формат : Matroska
Версия формата : Version 4 / Version 2
Размер файла : 5,75 Гбайт
Продолжительность : 51 м. 23 с.
Общий поток : 16,0 Мбит/сек
Название фильма : The Punisher S01E01@ Nikolai.Baranov & PIRATIYA
Дата кодирования : UTC 2017-11-29 18:00:52
Программа кодирования : mkvmerge v18.0.0 ('Apricity') 64-bit
Библиотека кодирования : libebml v1.3.5 + libmatroska v1.4.8
Видео
Идентификатор : 1
Формат : AVC
Формат/Информация : Advanced Video Codec
Профиль формата : High@L4.1
Настройки формата : CABAC / 4 Ref Frames
Параметр CABAC формата : Да
Параметр RefFrames формата : 4 кадра
Идентификатор кодека : V_MPEG4/ISO/AVC
Продолжительность : 51 м. 23 с.
Битрейт : 13,2 Мбит/сек
Ширина : 1920 пикселей
Высота : 1080 пикселей
Соотношение сторон : 16:9
Режим частоты кадров : Постоянный
Частота кадров : 23,976 (24000/1001) кадра/сек
Цветовое пространство : YUV
Субдискретизация насыщенности : 4:2:0
Битовая глубина : 8 бит
Тип развёртки : Прогрессивная
Бит/(Пиксели*Кадры) : 0.266
Размер потока : 4,74 Гбайт (82%)
Заголовок : Marvels_The_Punisher_S01E01_5xRus_Eng_Н264_DD5.1_N.B_HD_1080p
Библиотека кодирования : x264 core 152 r2851 ba24899
Настройки программы : cabac=1 / ref=4 / deblock=1:-3:-3 / analyse=0x3:0x133 / me=umh / subme=10 / psy=1 / psy_rd=1.15:0.00 / mixed_ref=1 / me_range=32 / chroma_me=1 / trellis=2 / 8x8dct=1 / cqm=0 / deadzone=21,11 / fast_pskip=0 / chroma_qp_offset=-2 / threads=12 / lookahead_threads=2 / sliced_threads=0 / nr=0 / decimate=0 / interlaced=0 / bluray_compat=0 / constrained_intra=0 / bframes=9 / b_pyramid=2 / b_adapt=2 / b_bias=0 / direct=3 / weightb=1 / open_gop=0 / weightp=2 / keyint=240 / keyint_min=23 / scenecut=40 / intra_refresh=0 / rc=crf / mbtree=0 / crf=20.0 / qcomp=0.60 / qpmin=0 / qpmax=69 / qpstep=4 / ip_ratio=1.30 / pb_ratio=1.20 / aq=3:0.65
Язык : Russian
Default : Да
Forced : Нет
Аудио #1
Идентификатор : 4
Формат : AC-3
Формат/Информация : Audio Coding 3
Идентификатор кодека : A_AC3
Продолжительность : 51 м. 22 с.
Вид битрейта : Постоянный
Битрейт : 640 Кбит/сек
Каналы : 6 каналов
Расположение каналов : Front: L C R, Side: L R, LFE
Частота : 48,0 КГц
Частота кадров : 31,250 кадров/сек (1536 SPF)
Битовая глубина : 16 бит
Метод сжатия : С потерями
Размер потока : 235 Мбайт (4%)
Заголовок : MVO LostFilm @DD5.1 AC3, 640 Kbps, 48.0 KHz, 6 ch
Язык : Russian
ServiceKind/String : Complete Main
Default : Да
Forced : Нет
Аудио #2
Идентификатор : 5
Формат : AC-3
Формат/Информация : Audio Coding 3
Идентификатор кодека : A_AC3
Продолжительность : 51 м. 23 с.
Вид битрейта : Постоянный
Битрейт : 384 Кбит/сек
Каналы : 6 каналов
Расположение каналов : Front: L C R, Side: L R, LFE
Частота : 48,0 КГц
Частота кадров : 31,250 кадров/сек (1536 SPF)
Битовая глубина : 16 бит
Метод сжатия : С потерями
Размер потока : 141 Мбайт (2%)
Заголовок : MVO AlexFilm @DD5.1 AC3, 384 Kbps, 48.0 KHz, 6 ch
Язык : Russian
ServiceKind/String : Complete Main
Default : Нет
Forced : Нет
Аудио #3
Идентификатор : 6
Формат : AC-3
Формат/Информация : Audio Coding 3
Идентификатор кодека : A_AC3
Продолжительность : 51 м. 22 с.
Вид битрейта : Постоянный
Битрейт : 384 Кбит/сек
Каналы : 6 каналов
Расположение каналов : Front: L C R, Side: L R, LFE
Частота : 48,0 КГц
Частота кадров : 31,250 кадров/сек (1536 SPF)
Битовая глубина : 16 бит
Метод сжатия : С потерями
Размер потока : 141 Мбайт (2%)
Заголовок : MVO BaibaKo @DD5.1 AC3, 384 Kbps, 48.0 KHz, 6 ch
Язык : Russian
ServiceKind/String : Complete Main
Default : Нет
Forced : Нет
Аудио #4
Идентификатор : 7
Формат : AC-3
Формат/Информация : Audio Coding 3
Идентификатор кодека : A_AC3
Продолжительность : 51 м. 23 с.
Вид битрейта : Постоянный
Битрейт : 384 Кбит/сек
Каналы : 6 каналов
Расположение каналов : Front: L C R, Side: L R, LFE
Частота : 48,0 КГц
Частота кадров : 31,250 кадров/сек (1536 SPF)
Битовая глубина : 16 бит
Метод сжатия : С потерями
Размер потока : 141 Мбайт (2%)
Заголовок : MVO NewStudio @DD5.1 AC3, 384 Kbps, 48.0 KHz, 6 ch
Язык : Russian
ServiceKind/String : Complete Main
Default : Нет
Forced : Нет
Аудио #5
Идентификатор : 8
Формат : AC-3
Формат/Информация : Audio Coding 3
Идентификатор кодека : A_AC3
Продолжительность : 51 м. 23 с.
Вид битрейта : Постоянный
Битрейт : 384 Кбит/сек
Каналы : 6 каналов
Расположение каналов : Front: L C R, Side: L R, LFE
Частота : 48,0 КГц
Частота кадров : 31,250 кадров/сек (1536 SPF)
Битовая глубина : 16 бит
Метод сжатия : С потерями
Размер потока : 141 Мбайт (2%)
Заголовок : MVO Kubik V Kube @DD5.1 AC3, 384 Kbps, 48.0 KHz, 6 ch
Язык : Russian
ServiceKind/String : Complete Main
Default : Нет
Forced : Нет
Аудио #6
Идентификатор : 9
Формат : AC-3
Формат/Информация : Audio Coding 3
Идентификатор кодека : A_AC3
Продолжительность : 51 м. 23 с.
Вид битрейта : Постоянный
Битрейт : 640 Кбит/сек
Каналы : 6 каналов
Расположение каналов : Front: L C R, Side: L R, LFE
Частота : 48,0 КГц
Частота кадров : 31,250 кадров/сек (1536 SPF)
Битовая глубина : 16 бит
Метод сжатия : С потерями
Размер потока : 235 Мбайт (4%)
Заголовок : Original@DD5.1 AC3 ,640 Kbps, 48.0 KHz, 6 ch
Язык : English
ServiceKind/String : Complete Main
Default : Нет
Forced : Нет
Текст #1
Идентификатор : 2
Формат : UTF-8
Идентификатор кодека : S_TEXT/UTF8
Идентификатор кодека/Информация : UTF-8 Plain Text
Продолжительность : 48 м. 56 с.
Битрейт : 94 бит/сек
ElementCount : 592
Размер потока : 33,7 Кбайт (0%)
Заголовок : Rus - SFI+FOCS
Язык : Russian
Default : Да
Forced : Нет
Текст #2
Идентификатор : 3
Формат : UTF-8
Идентификатор кодека : S_TEXT/UTF8
Идентификатор кодека/Информация : UTF-8 Plain Text
Продолжительность : 49 м. 1 с.
Битрейт : 69 бит/сек
ElementCount : 730
Размер потока : 24,9 Кбайт (0%)
Заголовок : Original - SDH
Язык : English
Default : Нет
Forced : Нет
Меню
00:00:00.000 : en:Глава 01 / en:Глава 01 / en:Глава 01 / en:Глава 01 / en:Глава 01 / en:Глава 01 / en:Глава 01 / en:Глава 01 / en:Глава 01
--

Скриншоты

-- --

Как закачать отдельный файл

1. Открыть торрент
2. Снять галки с тех файлов торрента, которые мы не хотим закачивать. Оставляем только на нужных нам файлах (файле).
3. Нажать О.К.
В клиенте utorrent
Инструкция
1) Открыть торрент

2) Снять галки с тех файлов торрента, которые мы не хотим закачивать:
* либо вручную, снимая с каждого файла галку( скрин №1)
* либо, нажав кнопку "Снять метки (Select None)", сняв сразу со всех файлов(скрин №2)
№1

№2

Оставляем только на нужных нам файлах (файле).

3)Нажать О.К
-- -- --Релиз от: Nikolai.Baranov & PIRATIYA -- -- -- --

_________________

Легко быть оптимистом, когда судьба не валит с ног тяжелыми ударами, а лишь иногда легонько шлепает по заднице.
[Торрент-статистика]
[Профиль]  [ЛС] 
Показать сообщения:    
Ответить на тему

Текущее время: Сегодня 20:47

Часовой пояс: GMT + 4



Вы не можете начинать темы
Вы не можете отвечать на сообщения
Вы не можете редактировать свои сообщения
Вы не можете удалять свои сообщения
Вы не можете голосовать в опросах
Вы не можете прикреплять файлы к сообщениям
Вы не можете скачивать файлы