Светлана Рукосуева - Курс "Бизнес на посуточной аренде" [2017]

Ответить на тему
 
Автор
Сообщение

nychkos2 ®

Стаж: 6 месяцев 15 дней

Сообщений: 1

Репутация: 0 [+] [-]

Пост 24-Ноя-2017 12:23

[Цитировать] 

Курс "Бизнес на посуточной аренде"
Год выпуска: 2017
Автор: Светлана Рукосуева
Жанр: Тренинг
Описание: В данной теме Вы найдете уникальную программу тренингов на тему «Бизнес на посуточной аренде от Светланы Рукосуевой». Светлана с нуля, не имея никаких навыков инвестиций и умения вести бизнес посуточной аренды, смогла за 2 месяца обогнать даже опытных, давно работающих в этой сфере конкурентов. Если вы хотели бы повторить её успех, то вам нужно ознакомиться с этим персональным коучингом. Тренер расскажет вам, как обрести финансовую свободу, как добиться большого потока клиентов и как увеличить количество сдаваемых квартир.
Что будет в программе тренинга?
• Работа с собственниками. Вы обучитесь навыку свободного общения с собственниками, сможете экономить в месяц до 10 000 рублей при аренде квартиры, научитесь во время кризиса находить самые выгодные для работы квартиры.
• Работа с конкурентами. Вы узнаете, как можно зарабатывать на конкурентах и научитесь без затруднений с ними общаться.
• Автоматизация бизнеса. Доведёте свой бизнес до автоматизма и сможете отдыхать, не думая о работе. В это время ваш бизнес продолжать работать и приносить доход.
• Дополнительный сервис. Сможете заработать до 10 000 рублей на всевозможных нестандартных услугах.
• Работа с горничными. Вы поймёте, на что нужно обращать внимание при выборе горничных и как контролировать их работу. Узнаете, как сэкономить на зарплате до 15 000 рублей.
• Работа с рекламой. Благодаря грамотно составленной отлаженной рекламе вы увеличите свой доход.
• Учёт и анализ. Сделав его, вы увеличите оборот и будете понимать, от каких квартир стоит отказаться в пользу более выгодных.
• Отчётные документы. Вы будете уметь вести учётные документы и выписывать командировочные документы.
Видео кодек: x264
Аудио кодек: AAC
Видео: AVC / Base@L4.1 / 30,000 fps / 1280х720 / 593 Kbps
Аудио: Русский / AAC / 44.1 KHz / 2 ch / 146 Kbps

Отчет MediaInfo

Общее
Формат : MPEG-4
Профиль формата : Base Media / Version 2
Идентификатор кодека : mp42 (isom/mp42)
Размер файла : 608 Мбайт
Продолжительность : 2 ч. 23 м.
Режим общего битрейта : Переменный
Общий поток : 593 Кбит/сек
Дата кодирования : UTC 2017-11-19 08:37:01
Дата пометки : UTC 2017-11-19 08:37:01
Видео
Идентификатор : 1
Формат : AVC
Формат/Информация : Advanced Video Codec
Профиль формата : Baseline@L4.1
Настройки формата : 1 Ref Frames
Параметр CABAC формата : Нет
Параметр RefFrames формата : 1 кадр
Идентификатор кодека : avc1
Идентификатор кодека/Информация : Advanced Video Coding
Продолжительность : 2 ч. 23 м.
Битрейт : 465 Кбит/сек
Ширина : 1280 пикселей
Высота : 720 пикселей
Соотношение сторон : 16:9
Режим частоты кадров : Постоянный
Частота кадров : 30,000 кадров/сек
Стандарт вещания : NTSC
Цветовое пространство : YUV
Субдискретизация насыщенности : 4:2:0
Битовая глубина : 8 бит
Тип развёртки : Прогрессивная
Бит/(Пиксели*Кадры) : 0.017
Размер потока : 476 Мбайт (78%)
Язык : English
Дата кодирования : UTC 2017-11-19 08:37:01
Дата пометки : UTC 2017-11-19 08:37:01
Цветовой диапазон : Limited
Аудио
Идентификатор : 2
Формат : AAC
Формат/Информация : Advanced Audio Codec
Профиль формата : LC
Идентификатор кодека : mp4a-40-2
Продолжительность : 2 ч. 23 м.
Вид битрейта : Переменный
Битрейт : 126 Кбит/сек
Максимальный битрейт : 263 Кбит/сек
Каналы : 2 канала
Расположение каналов : Front: L R
Частота : 44,1 КГц
Частота кадров : 43,066 кадра/сек (1024 SPF)
Метод сжатия : С потерями
Размер потока : 129 Мбайт (21%)
Язык : English
Дата кодирования : UTC 2017-11-19 08:37:01
Дата пометки : UTC 2017-11-19 08:37:01

Скриншоты



Последний раз редактировалось: nychkos2 (2018-03-15 23:41), всего редактировалось 4 раз(а)
[Торрент-статистика]
[Профиль]  [ЛС] 
Показать сообщения:    
Ответить на тему

Текущее время: Сегодня 08:29

Часовой пояс: GMT + 4



Вы не можете начинать темы
Вы не можете отвечать на сообщения
Вы не можете редактировать свои сообщения
Вы не можете удалять свои сообщения
Вы не можете голосовать в опросах
Вы не можете прикреплять файлы к сообщениям
Вы не можете скачивать файлы