Брюс Ли: Рождение Дракона / Birth of the Dragon (Джордж Нолфи / George Nolfi) [2016, Китай, Канада, США, боевик, драма, биография, WEB-DLRip] Dub

Ответить на тему
 
Автор
Сообщение

Волк ®

Пол:

Стаж: 6 лет 1 месяц

Сообщений: 692

Репутация: 297 [+] [-]

Откуда: Армения

Пост 08-Ноя-2017 20:45

[Цитировать] 

Брюс Ли: Рождение Дракона / Birth of the Dragon«Поединок, ставший легендой»- Страна: Китай, Канада, США
Жанр: боевик, драма, биография
Год выпуска: 2016
Продолжительность: 01:39:43
Перевод: Профессиональный (дублированный) iTunes
Субтитры: нет
Оригинальная аудиодорожка: нет-Режиссер: Джордж Нолфи / George Nolfi-В ролях: Филип Нг, Ся Юй, Ван Сиань, Юй Хай, У Юэ, Билли Магнуссен, Стивен Холмс, Райли Вуд, Саймон Инь, Терри Чен
Описание: Вскоре после приезда в США молодой Брюс Ли открывает школу единоборств. Но известный мастер Вон Джак Мань вызывает юного Брюса на бой. Проигравшему придется закрыть свою школу.-

-Качество видео: WEB-DLRip / WEB-DL 1080p
Формат видео: AVI
Видео: XviD build 67, 720x304 (2.35:1), 25.000 fps, ~1886 kbps avg, 0.345 bit/pixel
Аудио: 48 kHz, AC3 Dolby Digital, 3/2 (L,C,R,l,r) + LFE ch, ~384 kbps avg

MediaInfo

Complete name : D:\Раздачи\Брюс Ли Рождение Дракона (2016) WEB-DLRip_ivanes20031987.avi
Format : AVI
Format/Info : Audio Video Interleave
File size : 1.46 GiB
Duration : 1 h 31 min
Overall bit rate : 2 279 kb/s
Writing application : VirtualDubMod 1.5.10.3 (build 2550/release)
Writing library : VirtualDubMod build 2550/release
Video
ID : 0
Format : MPEG-4 Visual
Format profile : Advanced Simple@L5
Format settings, BVOP : 1
Format settings, QPel : No
Format settings, GMC : No warppoints
Format settings, Matrix : Custom
Codec ID : XVID
Codec ID/Hint : XviD
Duration : 1 h 31 min
Bit rate : 1 886 kb/s
Width : 720 pixels
Height : 304 pixels
Display aspect ratio : 2.35:1
Frame rate : 25.000 FPS
Color space : YUV
Chroma subsampling : 4:2:0
Bit depth : 8 bits
Scan type : Progressive
Compression mode : Lossy
Bits/(Pixel*Frame) : 0.345
Stream size : 1.21 GiB (83%)
Writing library : XviD 67
Audio
ID : 1
Format : AC-3
Format/Info : Audio Coding 3
Format settings, Endianness : Big
Codec ID : 2000
Duration : 1 h 31 min
Bit rate mode : Constant
Bit rate : 384 kb/s
Channel(s) : 6 channels
Channel positions : Front: L C R, Side: L R, LFE
Sampling rate : 48.0 kHz
Frame rate : 31.250 FPS (1536 SPF)
Bit depth : 16 bits
Compression mode : Lossy
Stream size : 251 MiB (17%)
Alignment : Split accross interleaves
Interleave, duration : 40 ms (1.00 video frame)
Interleave, preload duratio : 500 ms
Service kind : Complete Main

Скриншоты

[Торрент-статистика]
[Профиль]  [ЛС] 
Показать сообщения:    
Ответить на тему

Текущее время: Сегодня 15:50

Часовой пояс: GMT + 4



Вы не можете начинать темы
Вы не можете отвечать на сообщения
Вы не можете редактировать свои сообщения
Вы не можете удалять свои сообщения
Вы не можете голосовать в опросах
Вы не можете прикреплять файлы к сообщениям
Вы не можете скачивать файлы