Saxon - Baptism Of Fire: (The Collection 1991 - 2009) (2CD) (Heavy Metal) - 2016 [FLAC, image +.cue, lossless]

Ответить на тему
 
Автор
Сообщение

К@питан ®

Пол:

Стаж: 3 месяца 14 дней

Сообщений: 8

Репутация: 1 [+] [-]

Откуда: Klaipeda

Пост 04-Авг-2017 11:30

[Цитировать] 

-Saxon - Baptism Of Fire: The Collection 1991 - 2009--
Год издания: 2016
Страна: UK
Жанр: Heavy Metal
Продолжительность: 02:36:56-Лейбл издания: Music Club Deluxe
Страна-выпуска диска: EU
Номер по каталогу: MCDLX 220-Формат: FLAC
Битрейт аудио: Lossless
Тип рипа: image +.cue
Наличие сканов в содержимом раздачи: да
-

Трэклист

CD 1 | 01:18:51


01. Solid Ball Of Rock (4:38)
02. Requiem (We Will Remember) (5:17)
03. Altar Of The Gods (3:41)
04. Baptism Of Fire (3:12)
05. Forever Free (4:59)
06. Iron Wheels (4:15)
07. Nighthunter (3:24)
08. Just Wanna Make Love To You (3:56)
09. Dogs Of War (4:35)
10. The Great White Buffalo (5:54)
11. Demolition Alley (6:10)
12. Gothic Dreams (1:33)
13. Unleash The Beast (5:19)
14. Terminal Velocity (4:45)
15. The Thin Red Line (6:22)
16. Ministry Of Fools (4:32)
17. Intro (1:25)
18. Metalhead (4:52)

CD 2 | 01:18:05


01. Conquistador (4:43)
02. All Guns Blazing (3:53)
03. Intro (1:37)
04. Killing Ground (5:47)
05. Dragons Lair (3:40)
06. The Court Of The Crimson King (6:03)
07. Witchfinder General (4:50)
08. Lionheart (6:05)
09. Beyond The Grave (4:56)
10. I've Got To Rock (To Stay Alive) (4:42)
11. If I Was You (3:29)
12. Attila The Hun (8:11)
13. Battalions Of Steel (6:37)
14. Slow Lane Blues (4:09)
15. Live To Rock (5:31)
16. Demon Sweeney Todd (3:52)
-

Лог создания рипа

CD 1

Код:
Exact Audio Copy V1.1 from 23. June 2015
Отчёт EAC об извлечении, выполненном 1. августа 2017, 9:02
Saxon / Baptism of Fire
Дисковод: ASUS    DRW-20B1ST   Adapter: 1  ID: 0
Режим чтения                 : Достоверность
Использование точного потока : Да
Отключение кэша аудио        : Да
Использование указателей C2  : Нет
Коррекция смещения при чтении                     : 6
Способность читать области Lead-in и Lead-out     : Нет
Заполнение пропущенных сэмплов тишиной            : Да
Удаление блоков с тишиной в начале и конце        : Нет
При вычислениях CRC использовались нулевые сэмплы : Да
Интерфейс                                         : Встроенный Win32-интерфейс для Win NT/2000
Выходной формат          : Пользовательский кодировщик
Выбранный битрейт        : 1024 kBit/s
Качество                 : Высокий
Добавление ID3-тега      : Нет
Утилита сжатия           : D:\Exact Audio Copy 1.1 Portable by PortableWares\App\EAC\FLAC\FLAC.EXE
Дополнительные параметры : -6 -V -T "ARTIST=%artist%" -T "TITLE=%title%" -T "ALBUM=%albumtitle%" -T "DATE=%year%" -T "TRACKNUMBER=%tracknr%" -T "GENRE=%genre%" -T "COMMENT=%comment%" -T "BAND=%albuminterpret%" -T "ALBUMARTIST=%albuminterpret%" -T "COMPOSER=%composer%" %haslyrics%--tag-from-file=LYRICS="%lyricsfile%"%haslyrics% -T "DISCNUMBER=%cdnumber%" -T "TOTALDISCS=%totalcds%" -T "TOTALTRACKS=%numtracks%" %hascover%--picture="%coverfile%"%hascover% %source% -o %dest%
TOC извлечённого CD
     Трек |   Старт  | Длительность | Начальный сектор | Конечный сектор
    ---------------------------------------------------------------------
       1  |  0:00.00 |    4:38.23   |           0      |      20872
       2  |  4:38.23 |    5:17.25   |       20873      |      44672
       3  |  9:55.48 |    3:41.03   |       44673      |      61250
       4  | 13:36.51 |    3:12.35   |       61251      |      75685
       5  | 16:49.11 |    4:59.31   |       75686      |      98141
       6  | 21:48.42 |    4:14.42   |       98142      |     117233
       7  | 26:03.09 |    3:24.16   |      117234      |     132549
       8  | 29:27.25 |    3:56.24   |      132550      |     150273
       9  | 33:23.49 |    4:34.68   |      150274      |     170891
      10  | 37:58.42 |    5:53.59   |      170892      |     197425
      11  | 43:52.26 |    6:10.35   |      197426      |     225210
      12  | 50:02.61 |    1:33.18   |      225211      |     232203
      13  | 51:36.04 |    5:18.49   |      232204      |     256102
      14  | 56:54.53 |    4:45.32   |      256103      |     277509
      15  | 61:40.10 |    6:22.01   |      277510      |     306160
      16  | 68:02.11 |    4:31.51   |      306161      |     326536
      17  | 72:33.62 |    1:24.67   |      326537      |     332903
      18  | 73:58.54 |    4:51.65   |      332904      |     354793
Характеристики диапазона извлечения и сообщения об ошибках
Выбранный диапазон
     Имя файла E:\Saxon - Baptism of Fire.wav
     Пиковый уровень 100.0 %
     Скорость извлечения 9.1 X
     Качество диапазона 99.9 %
     CRC копии 61211DFC
     Копирование... OK
Ошибок не произошло
AccurateRip: сводка
Трек  1  : извлечено точно (доверие 2)  [24826260]  (AR v2)
Трек  2  : извлечено точно (доверие 2)  [7AC31AEE]  (AR v2)
Трек  3  : извлечено точно (доверие 2)  [6E0A1A27]  (AR v2)
Трек  4  : извлечено точно (доверие 2)  [12A9EFFE]  (AR v2)
Трек  5  : извлечено точно (доверие 2)  [5243EC67]  (AR v2)
Трек  6  : извлечено точно (доверие 2)  [7A96DE32]  (AR v2)
Трек  7  : извлечено точно (доверие 2)  [39759CA3]  (AR v2)
Трек  8  : извлечено точно (доверие 2)  [3FDEB6DE]  (AR v2)
Трек  9  : извлечено точно (доверие 2)  [C985C91B]  (AR v2)
Трек 10  : извлечено точно (доверие 2)  [26365F47]  (AR v2)
Трек 11  : извлечено точно (доверие 2)  [10789BFA]  (AR v2)
Трек 12  : извлечено точно (доверие 2)  [B16A8887]  (AR v2)
Трек 13  : извлечено точно (доверие 2)  [8D09B1C6]  (AR v2)
Трек 14  : извлечено точно (доверие 2)  [8154B65C]  (AR v2)
Трек 15  : извлечено точно (доверие 2)  [0D737016]  (AR v2)
Трек 16  : извлечено точно (доверие 2)  [98FA0F66]  (AR v2)
Трек 17  : извлечено точно (доверие 2)  [8EF55196]  (AR v2)
Трек 18  : извлечено точно (доверие 2)  [5EDE7435]  (AR v2)
Все треки извлечены точно
Конец отчёта

CD 2

Код:
Exact Audio Copy V1.1 from 23. June 2015
Отчёт EAC об извлечении, выполненном 1. августа 2017, 9:19
Saxon / Baptism of Fire
Дисковод: ASUS    DRW-20B1ST   Adapter: 1  ID: 0
Режим чтения                 : Достоверность
Использование точного потока : Да
Отключение кэша аудио        : Да
Использование указателей C2  : Нет
Коррекция смещения при чтении                     : 6
Способность читать области Lead-in и Lead-out     : Нет
Заполнение пропущенных сэмплов тишиной            : Да
Удаление блоков с тишиной в начале и конце        : Нет
При вычислениях CRC использовались нулевые сэмплы : Да
Интерфейс                                         : Встроенный Win32-интерфейс для Win NT/2000
Выходной формат          : Пользовательский кодировщик
Выбранный битрейт        : 1024 kBit/s
Качество                 : Высокий
Добавление ID3-тега      : Нет
Утилита сжатия           : D:\Exact Audio Copy 1.1 Portable by PortableWares\App\EAC\FLAC\FLAC.EXE
Дополнительные параметры : -6 -V -T "ARTIST=%artist%" -T "TITLE=%title%" -T "ALBUM=%albumtitle%" -T "DATE=%year%" -T "TRACKNUMBER=%tracknr%" -T "GENRE=%genre%" -T "COMMENT=%comment%" -T "BAND=%albuminterpret%" -T "ALBUMARTIST=%albuminterpret%" -T "COMPOSER=%composer%" %haslyrics%--tag-from-file=LYRICS="%lyricsfile%"%haslyrics% -T "DISCNUMBER=%cdnumber%" -T "TOTALDISCS=%totalcds%" -T "TOTALTRACKS=%numtracks%" %hascover%--picture="%coverfile%"%hascover% %source% -o %dest%
TOC извлечённого CD
     Трек |   Старт  | Длительность | Начальный сектор | Конечный сектор
    ---------------------------------------------------------------------
       1  |  0:00.00 |    4:42.61   |           0      |      21210
       2  |  4:42.61 |    3:53.12   |       21211      |      38697
       3  |  8:35.73 |    1:36.48   |       38698      |      45945
       4  | 10:12.46 |    5:47.09   |       45946      |      71979
       5  | 15:59.55 |    3:40.33   |       71980      |      88512
       6  | 19:40.13 |    6:02.71   |       88513      |     115733
       7  | 25:43.09 |    4:50.02   |      115734      |     137485
       8  | 30:33.11 |    6:05.27   |      137486      |     164887
       9  | 36:38.38 |    4:55.64   |      164888      |     187076
      10  | 41:34.27 |    4:41.74   |      187077      |     208225
      11  | 46:16.26 |    3:28.74   |      208226      |     223899
      12  | 49:45.25 |    8:10.59   |      223900      |     260708
      13  | 57:56.09 |    6:36.40   |      260709      |     290448
      14  | 64:32.49 |    4:09.20   |      290449      |     309143
      15  | 68:41.69 |    5:31.35   |      309144      |     334003
      16  | 74:13.29 |    3:51.53   |      334004      |     351381
Характеристики диапазона извлечения и сообщения об ошибках
Выбранный диапазон
     Имя файла E:\Saxon - Baptism of Fire.wav
     Пиковый уровень 94.4 %
     Скорость извлечения 9.4 X
     Качество диапазона 100.0 %
     CRC копии 3E8FADE1
     Копирование... OK
Ошибок не произошло
AccurateRip: сводка
Трек  1  : извлечено точно (доверие 2)  [C96FDB61]  (AR v2)
Трек  2  : извлечено точно (доверие 2)  [C556662D]  (AR v2)
Трек  3  : извлечено точно (доверие 2)  [1ACF79AD]  (AR v2)
Трек  4  : извлечено точно (доверие 2)  [62F93082]  (AR v2)
Трек  5  : извлечено точно (доверие 2)  [0AB4003F]  (AR v2)
Трек  6  : извлечено точно (доверие 2)  [C00CB551]  (AR v2)
Трек  7  : извлечено точно (доверие 2)  [1AED815D]  (AR v2)
Трек  8  : извлечено точно (доверие 2)  [C8833A7B]  (AR v2)
Трек  9  : извлечено точно (доверие 2)  [B2658787]  (AR v2)
Трек 10  : извлечено точно (доверие 2)  [C5D88DCE]  (AR v2)
Трек 11  : извлечено точно (доверие 2)  [F9FD16B9]  (AR v2)
Трек 12  : извлечено точно (доверие 2)  [042431C8]  (AR v2)
Трек 13  : извлечено точно (доверие 2)  [5E20378A]  (AR v2)
Трек 14  : извлечено точно (доверие 2)  [E8F509FB]  (AR v2)
Трек 15  : извлечено точно (доверие 2)  [CD0B1184]  (AR v2)
Трек 16  : извлечено точно (доверие 2)  [77054AAD]  (AR v2)
Все треки извлечены точно
Конец отчёта

Индексная карта (non-compilant .cue)

CD 1

Код:
REM GENRE "Heavy Metal"
REM DATE 2016
REM DISCID E6127A12
REM COMMENT "ExactAudioCopy v1.1"
PERFORMER "Saxon"
TITLE "Baptism of Fire"
FILE "Saxon - Baptism of Fire.flac" WAVE
TRACK 01 AUDIO
    TITLE "Solid Ball Of Rock"
    PERFORMER Saxon
    FLAGS DCP
    INDEX 01 00:00:00
  TRACK 02 AUDIO
    TITLE "Requiem (We Will Remember)"
    PERFORMER Saxon
    FLAGS DCP
    INDEX 00 04:37:07
    INDEX 01 04:38:23
  TRACK 03 AUDIO
    TITLE "Altar Of The Gods"
    PERFORMER Saxon
    FLAGS DCP
    INDEX 00 09:53:70
    INDEX 01 09:55:48
  TRACK 04 AUDIO
    TITLE "Baptism Of Fire"
    PERFORMER Saxon
    FLAGS DCP
    INDEX 00 13:34:57
    INDEX 01 13:36:51
  TRACK 05 AUDIO
    TITLE "Forever Free"
    PERFORMER Saxon
    FLAGS DCP
    INDEX 00 16:47:32
    INDEX 01 16:49:11
  TRACK 06 AUDIO
    TITLE "Iron Wheels"
    PERFORMER Saxon
    FLAGS DCP
    INDEX 00 21:47:24
    INDEX 01 21:48:42
  TRACK 07 AUDIO
    TITLE Nighthunter
    PERFORMER Saxon
    FLAGS DCP
    INDEX 00 26:01:33
    INDEX 01 26:03:09
  TRACK 08 AUDIO
    TITLE "Just Wanna Make Love To You"
    PERFORMER Saxon
    FLAGS DCP
    INDEX 00 29:26:02
    INDEX 01 29:27:25
  TRACK 09 AUDIO
    TITLE "Dogs Of War"
    PERFORMER Saxon
    FLAGS DCP
    INDEX 00 33:21:72
    INDEX 01 33:23:49
  TRACK 10 AUDIO
    TITLE "The Great White Buffalo"
    PERFORMER Saxon
    FLAGS DCP
    INDEX 00 37:57:40
    INDEX 01 37:58:42
  TRACK 11 AUDIO
    TITLE "Demolition Alley"
    PERFORMER Saxon
    FLAGS DCP
    INDEX 00 43:50:69
    INDEX 01 43:52:26
  TRACK 12 AUDIO
    TITLE "Gothic Dreams"
    PERFORMER Saxon
    FLAGS DCP
    INDEX 00 50:01:42
    INDEX 01 50:02:61
  TRACK 13 AUDIO
    TITLE "Unleash The Beast"
    PERFORMER Saxon
    FLAGS DCP
    INDEX 01 51:36:04
  TRACK 14 AUDIO
    TITLE "Terminal Velocity"
    PERFORMER Saxon
    FLAGS DCP
    INDEX 00 56:52:51
    INDEX 01 56:54:53
  TRACK 15 AUDIO
    TITLE "The Thin Red Line"
    PERFORMER Saxon
    FLAGS DCP
    INDEX 00 61:38:56
    INDEX 01 61:40:10
  TRACK 16 AUDIO
    TITLE "Ministry Of Fools"
    PERFORMER Saxon
    FLAGS DCP
    INDEX 00 68:01:30
    INDEX 01 68:02:11
  TRACK 17 AUDIO
    TITLE Intro
    PERFORMER Saxon
    FLAGS DCP
    INDEX 00 72:32:23
    INDEX 01 72:33:62
  TRACK 18 AUDIO
    TITLE "Metalhead "
    PERFORMER Saxon
    FLAGS DCP
    INDEX 01 73:58:54

CD 2

Код:
REM GENRE "Heavy Metal"
REM DATE 2016
REM DISCID F7124D10
REM COMMENT "ExactAudioCopy v1.1"
PERFORMER "Saxon"
TITLE "Baptism of Fire"
FILE "Saxon - Baptism of Fire.flac" WAVE
  TRACK 01 AUDIO
    TITLE Conquistador
    PERFORMER Saxon
    FLAGS DCP
    INDEX 01 00:00:00
  TRACK 02 AUDIO
    TITLE "All Guns Blazing"
    PERFORMER Saxon
    FLAGS DCP
    INDEX 00 04:40:67
    INDEX 01 04:42:61
  TRACK 03 AUDIO
    TITLE Intro
    PERFORMER Saxon
    FLAGS DCP
    INDEX 00 08:34:43
    INDEX 01 08:35:73
  TRACK 04 AUDIO
    TITLE "Killing Ground"
    PERFORMER Saxon
    FLAGS DCP
    INDEX 01 10:12:46
  TRACK 05 AUDIO
    TITLE "Dragons Lair"
    PERFORMER Saxon
    FLAGS DCP
    INDEX 00 15:57:67
    INDEX 01 15:59:55
  TRACK 06 AUDIO
    TITLE "The Court Of The Crimson King"
    PERFORMER Saxon
    FLAGS DCP
    INDEX 00 19:38:71
    INDEX 01 19:40:13
  TRACK 07 AUDIO
    TITLE "Witchfinder General"
    PERFORMER Saxon
    FLAGS DCP
    INDEX 00 25:42:36
    INDEX 01 25:43:09
  TRACK 08 AUDIO
    TITLE Lionheart
    PERFORMER Saxon
    FLAGS DCP
    INDEX 00 30:32:01
    INDEX 01 30:33:11
  TRACK 09 AUDIO
    TITLE "Beyond The Grave"
    PERFORMER Saxon
    FLAGS DCP
    INDEX 00 36:37:40
    INDEX 01 36:38:38
  TRACK 10 AUDIO
    TITLE "I've Got To Rock (To Stay Alive)"
    PERFORMER Saxon
    FLAGS DCP
    INDEX 00 41:32:64
    INDEX 01 41:34:27
  TRACK 11 AUDIO
    TITLE "If I Was You"
    PERFORMER Saxon
    FLAGS DCP
    INDEX 00 46:15:10
    INDEX 01 46:16:26
  TRACK 12 AUDIO
    TITLE "Attila The Hun"
    PERFORMER Saxon
    FLAGS DCP
    INDEX 00 49:43:50
    INDEX 01 49:45:25
  TRACK 13 AUDIO
    TITLE "Battalions Of Steel"
    PERFORMER Saxon
    FLAGS DCP
    INDEX 00 57:54:64
    INDEX 01 57:56:09
  TRACK 14 AUDIO
    TITLE "Slow Lane Blues"
    PERFORMER Saxon
    FLAGS DCP
    INDEX 00 64:31:14
    INDEX 01 64:32:49
  TRACK 15 AUDIO
    TITLE "Live To Rock"
    PERFORMER Saxon
    FLAGS DCP
    INDEX 00 68:40:67
    INDEX 01 68:41:69
  TRACK 16 AUDIO
    TITLE "Demon Sweeney Todd "
    PERFORMER Saxon
    FLAGS DCP
    INDEX 00 74:12:11
    INDEX 01 74:13:29
--

_________________
У нас все платно: родиться, учиться, жениться, лечиться, умереть.
Бесплатно разрешено только работать.
[Торрент-статистика]
[Профиль]  [ЛС] 
Показать сообщения:    
Ответить на тему

Текущее время: Сегодня 19:44

Часовой пояс: GMT + 4



Вы не можете начинать темы
Вы не можете отвечать на сообщения
Вы не можете редактировать свои сообщения
Вы не можете удалять свои сообщения
Вы не можете голосовать в опросах
Вы не можете прикреплять файлы к сообщениям
Вы не можете скачивать файлы