VA Этот день мы приближали, как могли... - 2010, (Военная песня), DTS, lossless

Ответить на тему
 
Автор
Сообщение

ADVOKAT69 ®

Стаж: 10 месяцев 17 дней

Сообщений: 18

Репутация: 5 [+] [-]

Откуда: СССР

Пост 08-Мар-2016 16:55

[Цитировать] 

VA Этот день мы приближали, как могли...
Жанр: Военная песня
Страна: СССР
Год выпуска: 2010
Контейнер: DTS
Битрейт аудио: lossless
Продолжительность: 01:11:17
Трэклист:

Треклист

01. В.М.Молотов - Речь 22 июня 1941г (08:42)
02. Краснознаменный Ансамбль Им. Александрова - Священная Война (04:15)
03. В.Трошин - В Землянке (03:02)
04. Левитан - Сообщение о прорыве блокады Ленинграда (02:47)
05. Нина Ургант - Десантный батальон (03:02)
06. М.Бернес - Темная Ночь (03:22)
07. Ю.Гуляев - На Безымянной Высоте (04:34)
08. Левитан - О победе под Сталинградом (03:13)
09. К.Шульженко - Синий Платочек (02:54)
10. Г.Виноградов - Эх, Дороги! (02:57)
11. М.Бернес - Враги Сожгли Родную Хату (03:32)
12. Левитан - Приказ Верховного Главнокомандующего от 6 марта 1944г (03:45)
13. Г.Виноградов - Катюша (02:20)
14. Краснознаменный Ансамбль Им. Александрова - Смуглянка (02:53)
15. В.Селиванов; Эстр.-Симф. Орк. ВРиТ, Дир. В. Федосеев - Три Танкиста (03:12)
16. Левитан - Советские войска овладели Берлином (00:43)
17. К.Шульженко - Где Же Вы Теперь, Друзья-Однополчане (03:04)
18. Э.Лабковский и Анс. Александрова - Бери шинель (04:35)
19. Левитан - Приказ ВГК от 8 мая 1945г (02:17)
20. Л.Лещенко - День Победы (03:54)
21. В.Златоустовский - Песня из к-ф Офицеры (02:16)

Отчёт Media Info:

Код:
General
Complete name : H:\Multichannel Music\VA - Этот день мы приближали как могли dts\01. Молотов - Речь 22 июня 1941г.dts
Format : Wave
File size : 87.8 MiB
Duration : 8mn 41s
Overall bit rate mode : Constant
Overall bit rate : 1 411 Kbps
Audio
ID : 0
Format : DTS
Format/Info : Digital Theater Systems
Format settings, Endianness : Little
Muxing mode : LE / 14
Codec ID : 1
Duration : 8mn 41s
Bit rate mode : Constant
Bit rate : 1 411.2 Kbps
Channel(s) : 6 channels
Channel positions : Front: L C R, Side: L R, LFE
Sampling rate : 44.1 KHz
Bit depth : 24 bits
Compression mode : Lossy
Stream size : 87.8 MiB (100%)
General
Complete name : H:\Multichannel Music\VA - Этот день мы приближали как могли dts\02. Священная война.dts
Format : Wave
File size : 42.8 MiB
Duration : 4mn 14s
Overall bit rate mode : Constant
Overall bit rate : 1 411 Kbps
Audio
ID : 0
Format : DTS
Format/Info : Digital Theater Systems
Format settings, Endianness : Little
Muxing mode : LE / 14
Codec ID : 1
Duration : 4mn 14s
Bit rate mode : Constant
Bit rate : 1 411.2 Kbps
Channel(s) : 6 channels
Channel positions : Front: L C R, Side: L R, LFE
Sampling rate : 44.1 KHz
Bit depth : 24 bits
Compression mode : Lossy
Stream size : 42.8 MiB (100%)
General
Complete name : H:\Multichannel Music\VA - Этот день мы приближали как могли dts\03. Землянка.dts
Format : Wave
File size : 30.6 MiB
Duration : 3mn 1s
Overall bit rate mode : Constant
Overall bit rate : 1 411 Kbps
Audio
ID : 0
Format : DTS
Format/Info : Digital Theater Systems
Format settings, Endianness : Little
Muxing mode : LE / 14
Codec ID : 1
Duration : 3mn 1s
Bit rate mode : Constant
Bit rate : 1 411.2 Kbps
Channel(s) : 6 channels
Channel positions : Front: L C R, Side: L R, LFE
Sampling rate : 44.1 KHz
Bit depth : 24 bits
Compression mode : Lossy
Stream size : 30.6 MiB (100%)
General
Complete name : H:\Multichannel Music\VA - Этот день мы приближали как могли dts\04. Левитан - Сообщение о прорыве блокады Ленинграда 18.01.1943.dts
Format : Wave
File size : 28.1 MiB
Duration : 2mn 47s
Overall bit rate mode : Constant
Overall bit rate : 1 411 Kbps
Audio
ID : 0
Format : DTS
Format/Info : Digital Theater Systems
Format settings, Endianness : Little
Muxing mode : LE / 14
Codec ID : 1
Duration : 2mn 47s
Bit rate mode : Constant
Bit rate : 1 411.2 Kbps
Channel(s) : 6 channels
Channel positions : Front: L C R, Side: L R, LFE
Sampling rate : 44.1 KHz
Bit depth : 24 bits
Compression mode : Lossy
Stream size : 28.1 MiB (100%)
General
Complete name : H:\Multichannel Music\VA - Этот день мы приближали как могли dts\05. Десантный батальон.dts
Format : Wave
File size : 30.6 MiB
Duration : 3mn 1s
Overall bit rate mode : Constant
Overall bit rate : 1 411 Kbps
Audio
ID : 0
Format : DTS
Format/Info : Digital Theater Systems
Format settings, Endianness : Little
Muxing mode : LE / 14
Codec ID : 1
Duration : 3mn 1s
Bit rate mode : Constant
Bit rate : 1 411.2 Kbps
Channel(s) : 6 channels
Channel positions : Front: L C R, Side: L R, LFE
Sampling rate : 44.1 KHz
Bit depth : 24 bits
Compression mode : Lossy
Stream size : 30.6 MiB (100%)
General
Complete name : H:\Multichannel Music\VA - Этот день мы приближали как могли dts\06. Темная ночь.dts
Format : Wave
File size : 33.9 MiB
Duration : 3mn 21s
Overall bit rate mode : Constant
Overall bit rate : 1 411 Kbps
Audio
ID : 0
Format : DTS
Format/Info : Digital Theater Systems
Format settings, Endianness : Little
Muxing mode : LE / 14
Codec ID : 1
Duration : 3mn 21s
Bit rate mode : Constant
Bit rate : 1 411.2 Kbps
Channel(s) : 6 channels
Channel positions : Front: L C R, Side: L R, LFE
Sampling rate : 44.1 KHz
Bit depth : 24 bits
Compression mode : Lossy
Stream size : 33.9 MiB (100%)
General
Complete name : H:\Multichannel Music\VA - Этот день мы приближали как могли dts\07. На безымянной высоте.dts
Format : Wave
File size : 46.1 MiB
Duration : 4mn 34s
Overall bit rate mode : Constant
Overall bit rate : 1 411 Kbps
Audio
ID : 0
Format : DTS
Format/Info : Digital Theater Systems
Format settings, Endianness : Little
Muxing mode : LE / 14
Codec ID : 1
Duration : 4mn 34s
Bit rate mode : Constant
Bit rate : 1 411.2 Kbps
Channel(s) : 6 channels
Channel positions : Front: L C R, Side: L R, LFE
Sampling rate : 44.1 KHz
Bit depth : 24 bits
Compression mode : Lossy
Stream size : 46.1 MiB (100%)
General
Complete name : H:\Multichannel Music\VA - Этот день мы приближали как могли dts\08. Левитан - О победе под Сталинградом.dts
Format : Wave
File size : 32.5 MiB
Duration : 3mn 13s
Overall bit rate mode : Constant
Overall bit rate : 1 411 Kbps
Audio
ID : 0
Format : DTS
Format/Info : Digital Theater Systems
Format settings, Endianness : Little
Muxing mode : LE / 14
Codec ID : 1
Duration : 3mn 13s
Bit rate mode : Constant
Bit rate : 1 411.2 Kbps
Channel(s) : 6 channels
Channel positions : Front: L C R, Side: L R, LFE
Sampling rate : 44.1 KHz
Bit depth : 24 bits
Compression mode : Lossy
Stream size : 32.5 MiB (100%)
General
Complete name : H:\Multichannel Music\VA - Этот день мы приближали как могли dts\09. Синий платочек.dts
Format : Wave
File size : 29.3 MiB
Duration : 2mn 54s
Overall bit rate mode : Constant
Overall bit rate : 1 411 Kbps
Audio
ID : 0
Format : DTS
Format/Info : Digital Theater Systems
Format settings, Endianness : Little
Muxing mode : LE / 14
Codec ID : 1
Duration : 2mn 54s
Bit rate mode : Constant
Bit rate : 1 411.2 Kbps
Channel(s) : 6 channels
Channel positions : Front: L C R, Side: L R, LFE
Sampling rate : 44.1 KHz
Bit depth : 24 bits
Compression mode : Lossy
Stream size : 29.3 MiB (100%)
General
Complete name : H:\Multichannel Music\VA - Этот день мы приближали как могли dts\10. Эх, дороги!.dts
Format : Wave
File size : 29.7 MiB
Duration : 2mn 56s
Overall bit rate mode : Constant
Overall bit rate : 1 411 Kbps
Audio
ID : 0
Format : DTS
Format/Info : Digital Theater Systems
Format settings, Endianness : Little
Muxing mode : LE / 14
Codec ID : 1
Duration : 2mn 56s
Bit rate mode : Constant
Bit rate : 1 411.2 Kbps
Channel(s) : 6 channels
Channel positions : Front: L C R, Side: L R, LFE
Sampling rate : 44.1 KHz
Bit depth : 24 bits
Compression mode : Lossy
Stream size : 29.7 MiB (100%)
General
Complete name : H:\Multichannel Music\VA - Этот день мы приближали как могли dts\11. Враги сожгли родную хату.dts
Format : Wave
File size : 35.6 MiB
Duration : 3mn 31s
Overall bit rate mode : Constant
Overall bit rate : 1 411 Kbps
Audio
ID : 0
Format : DTS
Format/Info : Digital Theater Systems
Format settings, Endianness : Little
Muxing mode : LE / 14
Codec ID : 1
Duration : 3mn 31s
Bit rate mode : Constant
Bit rate : 1 411.2 Kbps
Channel(s) : 6 channels
Channel positions : Front: L C R, Side: L R, LFE
Sampling rate : 44.1 KHz
Bit depth : 24 bits
Compression mode : Lossy
Stream size : 35.6 MiB (100%)
General
Complete name : H:\Multichannel Music\VA - Этот день мы приближали как могли dts\12. Левитан - Приказ Верховного Главнокомандующего от 6 марта 1944г.dts
Format : Wave
File size : 37.9 MiB
Duration : 3mn 45s
Overall bit rate mode : Constant
Overall bit rate : 1 411 Kbps
Audio
ID : 0
Format : DTS
Format/Info : Digital Theater Systems
Format settings, Endianness : Little
Muxing mode : LE / 14
Codec ID : 1
Duration : 3mn 45s
Bit rate mode : Constant
Bit rate : 1 411.2 Kbps
Channel(s) : 6 channels
Channel positions : Front: L C R, Side: L R, LFE
Sampling rate : 44.1 KHz
Bit depth : 24 bits
Compression mode : Lossy
Stream size : 37.9 MiB (100%)
General
Complete name : H:\Multichannel Music\VA - Этот день мы приближали как могли dts\13. Катюша.dts
Format : Wave
File size : 23.6 MiB
Duration : 2mn 20s
Overall bit rate mode : Constant
Overall bit rate : 1 411 Kbps
Audio
ID : 0
Format : DTS
Format/Info : Digital Theater Systems
Format settings, Endianness : Little
Muxing mode : LE / 14
Codec ID : 1
Duration : 2mn 20s
Bit rate mode : Constant
Bit rate : 1 411.2 Kbps
Channel(s) : 6 channels
Channel positions : Front: L C R, Side: L R, LFE
Sampling rate : 44.1 KHz
Bit depth : 24 bits
Compression mode : Lossy
Stream size : 23.6 MiB (100%)
General
Complete name : H:\Multichannel Music\VA - Этот день мы приближали как могли dts\14. Смуглянка.dts
Format : Wave
File size : 29.2 MiB
Duration : 2mn 53s
Overall bit rate mode : Constant
Overall bit rate : 1 411 Kbps
Audio
ID : 0
Format : DTS
Format/Info : Digital Theater Systems
Format settings, Endianness : Little
Muxing mode : LE / 14
Codec ID : 1
Duration : 2mn 53s
Bit rate mode : Constant
Bit rate : 1 411.2 Kbps
Channel(s) : 6 channels
Channel positions : Front: L C R, Side: L R, LFE
Sampling rate : 44.1 KHz
Bit depth : 24 bits
Compression mode : Lossy
Stream size : 29.2 MiB (100%)
General
Complete name : H:\Multichannel Music\VA - Этот день мы приближали как могли dts\15. Три танкиста.dts
Format : Wave
File size : 32.3 MiB
Duration : 3mn 11s
Overall bit rate mode : Constant
Overall bit rate : 1 411 Kbps
Audio
ID : 0
Format : DTS
Format/Info : Digital Theater Systems
Format settings, Endianness : Little
Muxing mode : LE / 14
Codec ID : 1
Duration : 3mn 11s
Bit rate mode : Constant
Bit rate : 1 411.2 Kbps
Channel(s) : 6 channels
Channel positions : Front: L C R, Side: L R, LFE
Sampling rate : 44.1 KHz
Bit depth : 24 bits
Compression mode : Lossy
Stream size : 32.3 MiB (100%)
General
Complete name : H:\Multichannel Music\VA - Этот день мы приближали как могли dts\16. Левитан - Советские войска овладели Берлином.dts
Format : Wave
File size : 7.25 MiB
Duration : 43s 73ms
Overall bit rate mode : Constant
Overall bit rate : 1 411 Kbps
Audio
ID : 0
Format : DTS
Format/Info : Digital Theater Systems
Format settings, Endianness : Little
Muxing mode : LE / 14
Codec ID : 1
Duration : 43s 73ms
Bit rate mode : Constant
Bit rate : 1 411.2 Kbps
Channel(s) : 6 channels
Channel positions : Front: L C R, Side: L R, LFE
Sampling rate : 44.1 KHz
Bit depth : 24 bits
Compression mode : Lossy
Stream size : 7.25 MiB (100%)
General
Complete name : H:\Multichannel Music\VA - Этот день мы приближали как могли dts\17. Где же вы теперь, друзья-однополчане.dts
Format : Wave
File size : 30.9 MiB
Duration : 3mn 3s
Overall bit rate mode : Constant
Overall bit rate : 1 411 Kbps
Audio
ID : 0
Format : DTS
Format/Info : Digital Theater Systems
Format settings, Endianness : Little
Muxing mode : LE / 14
Codec ID : 1
Duration : 3mn 3s
Bit rate mode : Constant
Bit rate : 1 411.2 Kbps
Channel(s) : 6 channels
Channel positions : Front: L C R, Side: L R, LFE
Sampling rate : 44.1 KHz
Bit depth : 24 bits
Compression mode : Lossy
Stream size : 30.9 MiB (100%)
General
Complete name : H:\Multichannel Music\VA - Этот день мы приближали как могли dts\18. Бери шинель.dts
Format : Wave
File size : 46.2 MiB
Duration : 4mn 34s
Overall bit rate mode : Constant
Overall bit rate : 1 411 Kbps
Audio
ID : 0
Format : DTS
Format/Info : Digital Theater Systems
Format settings, Endianness : Little
Muxing mode : LE / 14
Codec ID : 1
Duration : 4mn 34s
Bit rate mode : Constant
Bit rate : 1 411.2 Kbps
Channel(s) : 6 channels
Channel positions : Front: L C R, Side: L R, LFE
Sampling rate : 44.1 KHz
Bit depth : 24 bits
Compression mode : Lossy
Stream size : 46.2 MiB (100%)
General
Complete name : H:\Multichannel Music\VA - Этот день мы приближали как могли dts\19. Левитан - Приказ ВГК от 8 мая 1945г.dts
Format : Wave
File size : 23.0 MiB
Duration : 2mn 16s
Overall bit rate mode : Constant
Overall bit rate : 1 411 Kbps
Audio
ID : 0
Format : DTS
Format/Info : Digital Theater Systems
Format settings, Endianness : Little
Muxing mode : LE / 14
Codec ID : 1
Duration : 2mn 16s
Bit rate mode : Constant
Bit rate : 1 411.2 Kbps
Channel(s) : 6 channels
Channel positions : Front: L C R, Side: L R, LFE
Sampling rate : 44.1 KHz
Bit depth : 24 bits
Compression mode : Lossy
Stream size : 23.0 MiB (100%)
General
Complete name : H:\Multichannel Music\VA - Этот день мы приближали как могли dts\20. День Победы.dts
Format : Wave
File size : 39.4 MiB
Duration : 3mn 54s
Overall bit rate mode : Constant
Overall bit rate : 1 411 Kbps
Audio
ID : 0
Format : DTS
Format/Info : Digital Theater Systems
Format settings, Endianness : Little
Muxing mode : LE / 14
Codec ID : 1
Duration : 3mn 54s
Bit rate mode : Constant
Bit rate : 1 411.2 Kbps
Channel(s) : 6 channels
Channel positions : Front: L C R, Side: L R, LFE
Sampling rate : 44.1 KHz
Bit depth : 24 bits
Compression mode : Lossy
Stream size : 39.4 MiB (100%)
General
Complete name : H:\Multichannel Music\VA - Этот день мы приближали как могли dts\21. Песня из к-ф Офицеры.dts
Format : Wave
File size : 22.8 MiB
Duration : 2mn 15s
Overall bit rate mode : Constant
Overall bit rate : 1 411 Kbps
Audio
ID : 0
Format : DTS
Format/Info : Digital Theater Systems
Format settings, Endianness : Little
Muxing mode : LE / 14
Codec ID : 1
Duration : 2mn 15s
Bit rate mode : Constant
Bit rate : 1 411.2 Kbps
Channel(s) : 6 channels
Channel positions : Front: L C R, Side: L R, LFE
Sampling rate : 44.1 KHz
Bit depth : 24 bits
Compression mode : Lossy
Stream size : 22.8 MiB (100%)

_________________
Если-бы у меня была машина времени...я-бы свалил...назад...в СССР
[Торрент-статистика]
[Профиль]  [ЛС] 
Показать сообщения:    
Ответить на тему

Текущее время: Сегодня 05:35

Часовой пояс: GMT + 4



Вы не можете начинать темы
Вы не можете отвечать на сообщения
Вы не можете редактировать свои сообщения
Вы не можете удалять свои сообщения
Вы не можете голосовать в опросах
Вы не можете прикреплять файлы к сообщениям
Вы не можете скачивать файлы