[CD] Genghis Khan (Dschinghis Khan) - Dschinghis Khan (Japanese Edition) - 1995, (Disco), FLAC (image+.cue), lossless

Ответить на тему
 
Автор
Сообщение

Admiral ®

Пол:

Стаж: 3 года

Сообщений: 586

Репутация: 136 [+] [-]

Пост 15-Окт-2015 20:01

[Цитировать] 

--Genghis Khan (Dschinghis Khan) - Dschinghis Khan ( Japanese Edition )-- Жанр: Disco
Носитель: CD
Страна-производитель диска (релиза): Japan
Год издания: (1979)1995
Издатель (лейбл): Victor Intertainment Inc.
Номер по каталогу: VICP-2119
Страна исполнителя (группы): Germany
Аудиокодек: FLAC (*.flac)
Тип рипа: image+.cue
Битрейт аудио: lossless
Продолжительность: 00:51:43
Источник (релизер): Собственный диск
Наличие сканов в содержимом раздачи: да
Треклист:

01. Moskau 5:58
02. Komm Doch Heim 4:17
03. Samyrai 4:41
04. Rocking Son Of Dschinghis Khan 4:15
05. Pass Auf, Der Drache Kommt 3:42
06. Dschinghis Khan 3:03
07. Israel, Israel 5:40
08. China Boy 3:59
09. Sahara 3:00
10. Puszta 3:14
11. Der Verrater 5:34
Bonus tracks:
12. Handschi Halef Omar 3:48

Отчёт EAC

Код:
Exact Audio Copy V1.0 beta 3 from 29. August 2011
[br]Отчёт EAC об извлечении, выполненном 11. октября 2015, 11:13
[br]Dschinghis Khan / Dschinghis Khan
[br]Дисковод: hp      DVD-RAM UJ8B1   Adapter: 0  ID: 0
[br]Режим чтения                 : Достоверность
Использование точного потока : Да
Отключение кэша аудио        : Да
Использование указателей C2  : Нет
[br]Коррекция смещения при чтении                     : 6
Способность читать области Lead-in и Lead-out     : Нет
Заполнение пропущенных сэмплов тишиной            : Да
Удаление блоков с тишиной в начале и конце        : Нет
При вычислениях CRC использовались нулевые сэмплы : Да
Интерфейс                                         : Встроенный Win32-интерфейс для Win NT/2000
[br]Выходной формат          : Пользовательский кодировщик
Выбранный битрейт        : 128 kBit/s
Качество                 : Высокий
Добавление ID3-тега      : Нет
Утилита сжатия           : C:\Program Files (x86)\Exact Audio Copy\Flac\flac.exe
Дополнительные параметры : -V -8 -T "Date=%year%" -T "Genre=%genre%" %source%
[br]TOC извлечённого CD
[br]     Трек |   Старт  | Длительность | Начальный сектор | Конечный сектор
---------------------------------------------------------------------
1  |  0:00.00 |    6:01.12   |           0      |      27086
2  |  6:01.12 |    4:20.15   |       27087      |      46601
3  | 10:21.27 |    4:44.00   |       46602      |      67901
4  | 15:05.27 |    4:17.00   |       67902      |      87176
5  | 19:22.27 |    3:44.18   |       87177      |     103994
6  | 23:06.45 |    3:05.22   |      103995      |     117891
7  | 26:11.67 |    5:42.60   |      117892      |     143601
8  | 31:54.52 |    4:01.45   |      143602      |     161721
9  | 35:56.22 |    3:03.20   |      161722      |     175466
10  | 38:59.42 |    3:16.63   |      175467      |     190229
11  | 42:16.30 |    5:37.22   |      190230      |     215526
12  | 47:53.52 |    3:48.33   |      215527      |     232659
[br]Характеристики диапазона извлечения и сообщения об ошибках
[br]Выбранный диапазон
[br]     Имя файла E:\РАЗДАЧИ\NNM\Dschinghis Khan - Dschinghis Khan\Dschinghis Khan - Dschinghis Khan.wav
[br]     Пиковый уровень 100.0 %
Скорость извлечения 4.2 X
Качество диапазона 100.0 %
CRC теста B9D0D34D
CRC копии B9D0D34D
Копирование... OK
[br]Ошибок не произошло
[br]AccurateRip: сводка
[br]Трек  1  точность не определена (достоверность 3)  [BA17CE2E], AccurateRip вернул [6D17F33D]  (AR v2)
Трек  2  точность не определена (достоверность 3)  [98C263EC], AccurateRip вернул [2EC85D3B]  (AR v2)
Трек  3  точность не определена (достоверность 3)  [5752445D], AccurateRip вернул [13A6C91B]  (AR v2)
Трек  4  точность не определена (достоверность 3)  [06FA8810], AccurateRip вернул [A7F80949]  (AR v2)
Трек  5  точность не определена (достоверность 3)  [A73C8442], AccurateRip вернул [C386C581]  (AR v2)
Трек  6  точность не определена (достоверность 3)  [9876F1A3], AccurateRip вернул [A2C520B8]  (AR v2)
Трек  7  точность не определена (достоверность 3)  [09C6A9E6], AccurateRip вернул [C52C99F0]  (AR v2)
Трек  8  точность не определена (достоверность 3)  [125535FF], AccurateRip вернул [FF8FD47D]  (AR v2)
Трек  9  точность не определена (достоверность 3)  [4A16E92F], AccurateRip вернул [6C09B8AB]  (AR v2)
Трек 10  точность не определена (достоверность 3)  [E848101C], AccurateRip вернул [FD1D2F5A]  (AR v2)
Трек 11  точность не определена (достоверность 3)  [58CF4585], AccurateRip вернул [4EAB8180]  (AR v2)
Трек 12  точность не определена (достоверность 3)  [C5A38D3F], AccurateRip вернул [F741AB1F]  (AR v2)
[br]Ни один трек не прошёл проверки на точность
В вашей базе может быть иной вариант штамповки диска
[br]Конец отчёта
[br]==== Контрольная сумма отчёта D321AD2B26A87D169F04D409E4FC2E85A4D1CC3CF330F48C8C7943C6083BBC21 ====

Содержание индексной карты (.CUE)

Код:
REM GENRE Disco
REM DATE 1979
REM DISCID AC0C1E0C
REM COMMENT "ExactAudioCopy v1.0b3"
PERFORMER "Dschinghis Khan"
TITLE "Dschinghis Khan"
FILE "Dschinghis Khan - Dschinghis Khan.flac" WAVE
TRACK 01 AUDIO
TITLE "Moskau"
PERFORMER "Dschinghis Khan"
INDEX 01 00:00:00
TRACK 02 AUDIO
TITLE "Komm Doch Heim"
PERFORMER "Dschinghis Khan"
INDEX 00 05:58:68
INDEX 01 06:01:12
TRACK 03 AUDIO
TITLE "Samyrai"
PERFORMER "Dschinghis Khan"
INDEX 00 10:18:61
INDEX 01 10:21:27
TRACK 04 AUDIO
TITLE "Rocking Son Of Dschinghis Khan"
PERFORMER "Dschinghis Khan"
INDEX 00 15:02:68
INDEX 01 15:05:27
TRACK 05 AUDIO
TITLE "Pass Auf, Der Drache Kommt"
PERFORMER "Dschinghis Khan"
INDEX 00 19:20:63
INDEX 01 19:22:27
TRACK 06 AUDIO
TITLE "Dschinghis Khan"
PERFORMER "Dschinghis Khan"
INDEX 00 23:05:11
INDEX 01 23:06:45
TRACK 07 AUDIO
TITLE "Israel, Israel"
PERFORMER "Dschinghis Khan"
INDEX 00 26:09:56
INDEX 01 26:11:67
TRACK 08 AUDIO
TITLE "China Boy"
PERFORMER "Dschinghis Khan"
INDEX 00 31:52:61
INDEX 01 31:54:52
TRACK 09 AUDIO
TITLE "Sahara"
PERFORMER "Dschinghis Khan"
INDEX 00 35:54:46
INDEX 01 35:56:22
TRACK 10 AUDIO
TITLE "Puszta"
PERFORMER "Dschinghis Khan"
INDEX 00 38:56:58
INDEX 01 38:59:42
TRACK 11 AUDIO
TITLE "Der Verrater"
PERFORMER "Dschinghis Khan"
INDEX 00 42:14:28
INDEX 01 42:16:30
TRACK 12 AUDIO
TITLE "Handschi Halef Omar"
PERFORMER "Dschinghis Khan"
INDEX 00 47:51:18
INDEX 01 47:53:52

http://www.discogs.com/Genghis-Khan-Genghis-Khan/release/5768778
[Торрент-статистика]
[Профиль]  [ЛС] 
Показать сообщения:    
Ответить на тему

Текущее время: Сегодня 05:36

Часовой пояс: GMT + 4



Вы не можете начинать темы
Вы не можете отвечать на сообщения
Вы не можете редактировать свои сообщения
Вы не можете удалять свои сообщения
Вы не можете голосовать в опросах
Вы не можете прикреплять файлы к сообщениям
Вы не можете скачивать файлы