Доктор Кто / Doctor Who / Сезон: 9 / Серии: 0-13 из 13 (Стивен Моффат) [2015, Фантастика, WEB-DL 1080p] MVO (BaibaKo) + Original + Rus Subs (TeamNotDead)

Ответить на тему
 
Автор
Сообщение

sergei78 ®

Пол:

Стаж: 4 года 3 месяца

Сообщений: 91

Репутация: 120 [+] [-]

Откуда: Бывший СССР: "Связист Кстово 100/40"

Пост 07-Окт-2015 00:49

[Цитировать] 

-Доктор Кто / Doctor Who Сезон 9 / Серия 00-13 (13)- Год выпуска: 2015
Страна: Великобритания
Жанр: Фантастика
Продолжительность: 00:46:00
Перевод: Профессиональный (многоголосый закадровый) BaibaKo-Сценаристы: Стивен Моффат, Тоби Уитхаус, Марк Гэтисс
Режиссёры: Хетти МакДональд, Дэниел О'Хара, Дэниел Неттхейм-В ролях: Питер Капальди, Дженна Коулман-Описание: Доктор Кто (Doctor Who) — культовый британский научно-фантастический телесериал компании «Би-би-си» о загадочном инопланетном путешественнике во времени, известном как Доктор. Вместе со своими спутниками он исследует время и пространство, попутно решая разные проблемы и восстанавливая справедливость.-Качество: WEB-DL 1080p
Контейнер: MKV
Видео: AVC, 1928х1080, 25 fps, 4972 kbps
Аудио 1: Rus, AC3, 48 KHz, 6 ch, 384 kbps
Аудио 2: Eng, AC3, 48 KHz, 6 ch, 384 kbps
Субтитры: русские (TeamNotDead), английские-

Релиз

Релиз-группа:

Перевод: Татьяна Saavick
Озвучка: Светлана Доманова, Татьяна Оболевич, Anna_Smile, Алексей Кузнецов, Александр Фурман и Владимир Курдов
Монтаж: Виталий Мартыняк
Субтитры:

Перевод: maxibeginner, Useiknya, ptm, HelleLit, zhrbrz, Caligula, Melissa_Bennett
Редактирование, синхронизация: maxibeginner

Список серий

00. Prologue. - Пролог
01. The Magician's Apprentice. - Ученик волшебника
02. The Witch's Familiar. - Фамильяр ведьмы
03. Under the Lake. - На дне озера
04. Before the Flood. - До потопа
05. The Girl Who Died. - Девочка, которая умерла
06. The Woman Who Lived. - Женщина, которая выжила
07. The Zygon Invasion. - Вторжение зигонов
08. The Zygon Inversion. - Преображение зигонов
09. Sleep No More. - Не спите!
10. Face the Raven. - Предстать перед вороном
11. Heaven Sent. - Благими намерениями...
12. Hell Bent. - Дорога в ад
13. The Husbands of River Song. - Финал сезона

Глядеть в онлайн

онлайн
онлайн 2

MediaInfo

General
Unique ID : 221220727229420942523328845817886965919 (0xA66D8FF22C72A9FF841018A30712809F)
Complete name : C:\Video\Doctor.Who.S09.RUS\Doctor.Who.S09E01.The.Magician's.Apprentice.RUS.1080p.WEB-DL.mkv
Format : Matroska
Format version : Version 4 / Version 2
File size : 1.90 GiB
Duration : 46mn 31s
Overall bit rate : 5 856 Kbps
Encoded date : UTC 2015-09-21 12:51:20
Writing application : mkvmerge v8.3.0 ('Over the Horizon') 64bit
Writing library : libebml v1.3.1 + libmatroska v1.4.2
DURATION : 00:46:31.968000000
NUMBER_OF_FRAMES : 87249
NUMBER_OF_BYTES : 134014464
_STATISTICS_WRITING_APP : mkvmerge v8.3.0 ('Over the Horizon') 64bit
_STATISTICS_WRITING_DATE_UTC : 2015-09-21 12:51:20
_STATISTICS_TAGS : BPS DURATION NUMBER_OF_FRAMES NUMBER_OF_BYTES
Attachment : Yes / Yes / Yes / Yes
Video
ID : 1
Format : AVC
Format/Info : Advanced Video Codec
Format profile : High@L4.0
Format settings, CABAC : Yes
Format settings, ReFrames : 4 frames
Codec ID : V_MPEG4/ISO/AVC
Duration : 46mn 31s
Bit rate : 4 972 Kbps
Width : 1 920 pixels
Height : 1 080 pixels
Display aspect ratio : 16:9
Frame rate mode : Constant
Frame rate : 25.000 fps
Color space : YUV
Chroma subsampling : 4:2:0
Bit depth : 8 bits
Scan type : Progressive
Bits/(Pixel*Frame) : 0.096
Stream size : 1.62 GiB (85%)
Language : English
Default : Yes
Forced : No
Color primaries : BT.709
Transfer characteristics : BT.709
Matrix coefficients : BT.709
Audio #1
ID : 2
Format : AC-3
Format/Info : Audio Coding 3
Mode extension : CM (complete main)
Format settings, Endianness : Big
Codec ID : A_AC3
Duration : 46mn 31s
Bit rate mode : Constant
Bit rate : 384 Kbps
Channel count : 6 channels
Channel positions : Front: L C R, Side: L R, LFE
Sampling rate : 48.0 KHz
Bit depth : 16 bits
Compression mode : Lossy
Stream size : 128 MiB (7%)
Title : BaibaKo
Language : Russian
Default : Yes
Forced : No
Audio #2
ID : 3
Format : AC-3
Format/Info : Audio Coding 3
Mode extension : CM (complete main)
Format settings, Endianness : Big
Codec ID : A_AC3
Duration : 46mn 31s
Bit rate mode : Constant
Bit rate : 384 Kbps
Channel count : 6 channels
Channel positions : Front: L C R, Side: L R, LFE
Sampling rate : 48.0 KHz
Bit depth : 16 bits
Compression mode : Lossy
Stream size : 128 MiB (7%)
Language : English
Default : No
Forced : No
Text #1
ID : 4
Format : UTF-8
Codec ID : S_TEXT/UTF8
Codec ID/Info : UTF-8 Plain Text
Title : TeamNotDead
Language : Russian
Default : Yes
Forced : No
Text #2
ID : 5
Format : UTF-8
Codec ID : S_TEXT/UTF8
Codec ID/Info : UTF-8 Plain Text
Title : English
Language : English
Default : No
Forced : No

Скриншоты

Старые постеры














Внимание! Раздача ведётся путём добавления новых серий

Внимание! Раздача ведётся путём добавления новых серий; при каждом добавлении создаётся новый торрент. Чтобы начать докачку новой серии, пользователям необходимо сделать следующее:
(1) остановить скачивание,
(2) удалить старый торрент у себя из клиента (старые серии удалять не надо),
(3) скачать новый торрент и запустить его у себя в клиенте вместо старого, при этом указать клиенту путь в старую папку куда и должно происходить скачивание новых серий.
Ваш клиент при этом должен произвести хеширование (проверку) старой папки (если не производит сам - помогите ему сделать это), и будет докачивать только те серии которых у вас ещё нет. Старые серии при этом не удаляются, а продолжают раздаваться!
Eсли вы уже удалили старые серии, то предотвратить повторную закачку старых серий можно, отжав галочку в соответствующих местах при запуске нового торрента. По возможности, желательно не удалять старые серии как можно дольше чтобы релизёр не столько продолжал раздавать старые серии, а смог сконцентрироваться на новых.
- -Торрент обновлен 31.12.2015
Добавлена 13 серия, скачайте по новой торент.


Последний раз редактировалось: sergei78 (2016-01-01 00:06), всего редактировалось 13 раз(а)
[Торрент-статистика]
[Профиль]  [ЛС] 

Волк

Пол:

Стаж: 6 лет 2 месяца

Сообщений: 692

Репутация: 297 [+] [-]

Откуда: Армения

Пост 07-Ноя-2015 23:05 (спустя 1 месяц)

[Цитировать] 

sergei78, Уменьшите постер!
[Торрент-статистика]
[Профиль]  [ЛС] 

sergei78 ®

Пол:

Стаж: 4 года 3 месяца

Сообщений: 91

Репутация: 120 [+] [-]

Откуда: Бывший СССР: "Связист Кстово 100/40"

Пост 01-Янв-2016 00:11 (спустя 1 месяц 24 дня)

[Цитировать] 

Ну что на это 9 сезон закончен.
Ждем с нетерпением 10 сезон
[Торрент-статистика]
[Профиль]  [ЛС] 
Показать сообщения:    
Ответить на тему

Текущее время: Сегодня 16:19

Часовой пояс: GMT + 4



Вы не можете начинать темы
Вы не можете отвечать на сообщения
Вы не можете редактировать свои сообщения
Вы не можете удалять свои сообщения
Вы не можете голосовать в опросах
Вы не можете прикреплять файлы к сообщениям
Вы не можете скачивать файлы