Бруклин 9-9 / Brooklyn Nine-Nine / Сезон: 2 / Серии: 1-9 из 22 (Фил Лорд, Крис Миллер, Джейсон Энслер) [2014, Комедия, полицейский ситком, детектив, драма, WEB-DL 720p] NewStudio

Ответить на тему
 
Автор
Сообщение

awk05 ®

Пол:

Стаж: 5 лет 7 месяцев

Сообщений: 1352

Репутация: 275 [+] [-]

Откуда: Западная Украина Ривне

Пост 01-Окт-2014 20:20

[Цитировать] 

--Бруклин 9-9 / Brooklyn Nine-Nine -- Год выпуска: 2014
Жанр: Комедия, полицейский ситком, детектив, драма
Выпущено: США, FOX, 20th Century Fox Television
Сезон/Серия: Сезон: 2 /Серия 1-9 из 22
Продолжительность: 22 х 00:21:00
Перевод: Профессиональный (многоголосый)+ Original
Озвучка / Автор перевода: NewStudio
Субтитры: отсутствуют--Режиссер: Фил Лорд, Крис Миллер, Джейсон Энслер--В ролях: Энди Сэмберг, Андре Брогер, Терри Крюс, Мелисса Фумеро, Джо Ло Трульо, Стефани Беатриз, Джейд Или, Фред Армизен, Дирк Блокер, Ричард Финкельштейн--О фильме: История о том, что происходит, когда у детектива, не воспринимающего ничего серьезно, появляется новый руководитель, который хочет, чтобы он рос и с уважением относился к своей должности.--Качество видео:WEB-DL 720p
Формат видео: MKV
Видео кодек: AVC (High@L3.1)
Аудио кодек: AC3
Видео: AVC, 1280x720 (16:9), 23.976 fps, 3 917 Kbps (0.177 bit/pixel)
Аудио 1: AC-3, 48.0 KHz, 6 ch, 384 Kbps, CBR, 16 bits [Русский]
Аудио 2: AC-3, 48.0 KHz, 6 ch, 384 Kbps, CBR, 16 bits [Английский]-- --

Список серий

01. Undercover / Под прикрытием
02. Chocolate Milk / Шоколадное молоко
03. The Jimmy Jab Games / Джимми Джебовые игры
04. Halloween II / Хэллоуин 2
05. The Mole
06. Jake and Sophia / Джейк и София
07. Lockdown / Карантин
08. USPIS
09. The Road Trip / Поездка

MediaInfo

Код:
Общее
Уникальный идентификатор                 : 203579375555143703962679230844495026016 (0x9927F627C192A333A5CAE68DBCC55760)
Полное имя                               : E:\тест\Brooklyn.9-9.S02.NewStudio\Brooklyn.Nine.Nine.S02E01.WEBDL.720p.NewStudio.TV.mkv
Формат                                   : Matroska
Версия формата                           : Version 2
Размер файла                             : 739 Мбайт
Продолжительность                        : 21 м.
Общий поток                              : 4780 Кбит/сек
Дата кодирования                         : UTC 2014-09-30 21:49:15
Программа кодирования                    : mkvmerge v2.9.9 ('Tutu') built on Nov 25 2009 21:13:32
Библиотека кодирования                   : libebml v0.7.9 + libmatroska v0.8.1
Attachements                             : small_cover.jpg / cover.jpg / cover_land.jpg / small_cover_land.jpg
Видео
Идентификатор                            : 1
Формат                                   : AVC
Формат/Информация                        : Advanced Video Codec
Профиль формата                          : High@L3.1
Параметр CABAC формата                   : Нет
Параметр ReFrames формата                : 2 кадра
Идентификатор кодека                     : V_MPEG4/ISO/AVC
Продолжительность                        : 21 м.
Битрейт                                  : 3917 Кбит/сек
Ширина                                   : 1280 пикселей
Высота                                   : 720 пикселей
Соотношение сторон                       : 16:9
Режим частоты кадров                     : Постоянный
Частота кадров                           : 23,976 кадра/сек
Цветовое пространство                    : YUV
Субдискретизация насыщенности            : 4:2:0
Битовая глубина                          : 8 бит
Тип развёртки                            : Прогрессивная
Бит/(Пиксели*Кадры)                      : 0.177
Размер потока                            : 606 Мбайт (82%)
Язык                                     : English
Default                                  : Нет
Forced                                   : Нет
Основные цвета                           : BT.709
Характеристики трансфера                 : BT.709
Коэффициенты матрицы                     : BT.709
Аудио #1
Идентификатор                            : 2
Формат                                   : AC-3
Формат/Информация                        : Audio Coding 3
Расширение режима                        : CM (complete main)
Параметр Endianness формата              : Big
Идентификатор кодека                     : A_AC3
Продолжительность                        : 21 м.
Вид битрейта                             : Постоянный
Битрейт                                  : 384 Кбит/сек
Каналы                                   : 6 каналов
Расположение каналов                     : Front: L C R, Side: L R, LFE
Частота                                  : 48,0 КГц
Битовая глубина                          : 16 бит
Метод сжатия                             : С потерями
Размер потока                            : 59,4 Мбайт (8%)
Язык                                     : Russian
Default                                  : Да
Forced                                   : Да
Аудио #2
Идентификатор                            : 3
Формат                                   : AC-3
Формат/Информация                        : Audio Coding 3
Расширение режима                        : CM (complete main)
Параметр Endianness формата              : Big
Идентификатор кодека                     : A_AC3
Продолжительность                        : 21 м.
Вид битрейта                             : Постоянный
Битрейт                                  : 384 Кбит/сек
Каналы                                   : 6 каналов
Расположение каналов                     : Front: L C R, Side: L R, LFE
Частота                                  : 48,0 КГц
Битовая глубина                          : 16 бит
Метод сжатия                             : С потерями
Размер потока                            : 59,4 Мбайт (8%)
Язык                                     : English
Default                                  : Нет
Forced                                   : Нет

Скриншоты

Внимание! Раздача ведётся путём добавления новых серий

Внимание! Раздача ведётся путём добавления новых серий; при каждом добавлении создаётся новый торрент.
Чтобы начать докачку новой серии, пользователям необходимо сделать следующее:
1. Остановить скачивание;
2. Удалить старый торрент у себя из клиента (старые серии удалять не надо);
3. Скачать новый торрент и запустить его у себя в клиенте вместо старого, при этом указать клиенту путь в старую папку куда и должно происходить скачивание новых серий. Ваш клиент при этом должен произвести хеширование (проверку) старой папки и будет докачивать только те серии, которых у вас ещё нет. Старые серии при этом не удаляются, а продолжают раздаваться! Eсли вы уже удалили старые серии, то предотвратить повторную закачку старых серий можно, отжав галочку в соответствующих местах при запуске нового торрента.

_________________
[Торрент-статистика]
[Профиль]  [ЛС] 
Показать сообщения:    
Ответить на тему

Текущее время: Сегодня 16:07

Часовой пояс: GMT + 4



Вы не можете начинать темы
Вы не можете отвечать на сообщения
Вы не можете редактировать свои сообщения
Вы не можете удалять свои сообщения
Вы не можете голосовать в опросах
Вы не можете прикреплять файлы к сообщениям
Вы не можете скачивать файлы