Колония / The Colony (Джефф Ренфро / Jeff Renfroe) [2013 г., фантастика, боевик, триллер, DVDRip] КПК [MP4, 640х] | AVO

Ответить на тему
 
Автор
Сообщение

ArtZak ®

Пол:

Стаж: 8 лет 2 месяца

Сообщений: 2845

Репутация: 1366 [+] [-]

Откуда: Россия

Пост 01-Авг-2013 23:55

[Цитировать] 

Колония / The Colony
«When the world changes the rules of survival change with it»
- Год выпуска: 2013
Страна: Канада
Жанр: фантастика, боевик, триллер
Продолжительность: 01:34:13
Перевод: Любительский (одноголосый) [den904]
Работа со звуком: [g00ba]
Режиссер: Джефф Ренфро / Jeff Renfroe
Производство: Alcina Pictures, Item 7, Mad Samurai Productions
Оффициальный сайт фильма- -В ролях:
Лоренс Фишбёрн, Кевин Зегерс, Билл Пэкстон, Шарлотта Салливан, Джон Тенч, Аттикус Дин Митчелл, Дрю Вигевер, Романо Орзари, Эрл Паско, Джон Хили и др.
Описание:
После природного катаклизма, под ледяной поверхностью, покрывшей Землю, оставшиеся в живых люди собрались в Колонию 7 и пытаются выжить несмотря на сокращающиеся запасы продовольствия. Они еще поддерживают связь с Колонией 5, но после того, как контакт с ними теряется, группа смельчаков отправляется в опасную экспедицию, чтобы выяснить, что произошло с их соседями. Преодолев тяжелейший путь герои сталкиваются с опасностью во много раз превосходящую природную угрозу холода…
Премьера (мир): 26 апреля 2013
Тип релиза: DVDRip (Исходник)
Контейнер: MP4
Видео кодек: H264 (AVC)
Аудио кодек: AAC
Видео: AVC, 640x346 (16:9), 23.976 fps, 585 Kbps (0.108 bit/pixel)
Аудио: AAC LC, 48.0 KHz, 2 ch, 125 Kbps, VBR

MI

General
Complete name : C:\my_rips_640x\The Colony (2013) DVDRip L1 640x.mp4
Format : MPEG-4
Format profile : Base Media / Version 2
Codec ID : mp42
File size : 481 MiB
Duration : 1h 34mn
Overall bit rate mode : Variable
Overall bit rate : 713 Kbps
Encoded date : UTC 2013-08-01 01:00:27
Tagged date : UTC 2013-08-01 01:00:46
Writing application : mp4creator 1.6.1d
Video
ID : 1
Format : AVC
Format/Info : Advanced Video Codec
Format profile : High@L2.1
Format settings, CABAC : No
Format settings, ReFrames : 1 frame
Codec ID : avc1
Codec ID/Info : Advanced Video Coding
Duration : 1h 34mn
Bit rate mode : Variable
Bit rate : 585 Kbps
Width : 640 pixels
Height : 352 pixels
Original height : 346 pixels
Display aspect ratio : 16:9
Original display aspect ratio : 1.85:1
Frame rate mode : Variable
Frame rate : 23.976 fps
Minimum frame rate : 23.974 fps
Maximum frame rate : 23.981 fps
Color space : YUV
Chroma subsampling : 4:2:0
Bit depth : 8 bits
Scan type : Progressive
Bits/(Pixel*Frame) : 0.108
Stream size : 394 MiB (82%)
Language : English
Encoded date : UTC 2013-08-01 01:00:27
Tagged date : UTC 2013-08-01 01:00:38
Audio
ID : 2
Format : AAC
Format/Info : Advanced Audio Codec
Format profile : LC
Codec ID : 40
Duration : 1h 34mn
Bit rate mode : Variable
Bit rate : 125 Kbps
Maximum bit rate : 168 Kbps
Channel(s) : 2 channels
Channel positions : Front: L R
Sampling rate : 48.0 KHz
Compression mode : Lossy
Stream size : 84.5 MiB (18%)
Language : English
Encoded date : UTC 2013-08-01 01:00:41
Tagged date : UTC 2013-08-01 01:00:46

Скриншоты



-Релиз от:
-
[Торрент-статистика]
[Профиль]  [ЛС] 
Показать сообщения:    
Ответить на тему

Текущее время: Сегодня 18:01

Часовой пояс: GMT + 4



Вы не можете начинать темы
Вы не можете отвечать на сообщения
Вы не можете редактировать свои сообщения
Вы не можете удалять свои сообщения
Вы не можете голосовать в опросах
Вы не можете прикреплять файлы к сообщениям
Вы не можете скачивать файлы