Восхождение Юпитер / Jupiter Ascending (Энди Вачовски, Лана Вачовски) [2015 г., фантастика, фэнтези, боевик, приключения, BDRip 720p] [Лицензия] [Видео для iPad]

Ответить на тему
 
Автор
Сообщение

ArtZak ®

Пол:

Стаж: 7 лет

Сообщений: 2954

Репутация: 1364 [+] [-]

Откуда: Россия

Пост 10-Май-2015 12:58

[Цитировать] 

Восхождение Юпитер / Jupiter Ascending
«Expand your universe»
- Год выпуска: 2015
Страна: США, Aaron Sims Company, Village Roadshow Pictures, Warner Bros. Pictures
Жанр: фантастика, фэнтези, боевик, приключения
Продолжительность: 02:07:32
Перевод: Профессиональный (полное дублирование) [Лицензия]
Режиссер: Энди Вачовски, Лана Вачовски- -В ролях:
Ченнинг Татум, Мила Кунис, Шон Бин, Эдди Редмэйн, Дуглас Бут, Таппенс Мидлтон, Никки Амука-Бёрд, Кристина Коул, Николас А. Ньюман, Рамон Тикарам, Эрион Бакаре, Мария Дойл Кеннеди, Фрог Стоун, Дэвид Аджала, Ду На Пэ, Гугу Мбата-Роу, Эдвард Хогг, Тим Пиготт-Смит, Джеймс Д`Арси, Джереми Свифт и др.
Описание:
Юпитер Джонс родилась под ночным небом, и все знаки предсказывали, что девочке предстоят великие свершения. Юпитер выросла и каждый день видит во сне звезды, но просыпается в жесткой реальности, где она работает уборщицей и моет туалеты. Личная жизнь Юпитер тоже оставляет желать лучшего, пока девушка не встречает Кейна. Кейн, бывший военный охотник, прибывает на Землю, чтобы отыскать Юпитер и раскрыть девушке ее истинное предназначение. Благодаря своим генетическим особенностям Юпитер становится претенденткой невероятного наследия, способного изменить равновесие во Вселенной.
Рип от:

Релиз-группа:

Тип релиза: BDRip 720p
Контейнер: MP4
Видео кодек: MPEG-4 AVC
Аудио кодек: AAC
Параметры Видео: 1280x528, 23.976 fps; ~1 778 kbps avg
Параметры Звука: 44.1 KHz, AAC, ~149.00 kbps avg, 2ch

Meta Tags

MI

General
Complete name : Vosxozhdenie_Yupiter.2015.D.BDRip.720p_KinoGadget.and.KinoXa.mp4
Format : MPEG-4
Format profile : Base Media
Codec ID : isom
File size : 1.72 GiB
Duration : 2h 7mn
Overall bit rate mode : Variable
Overall bit rate : 1 935 Kbps
Movie name : Восхождение Юпитер
Performer : Энди Вачовски, Лана Вачовски
Genre : Action, Adventure
ContentType : Short Film
Recorded date : 2015
Encoded date : UTC 2015-05-10 05:28:05
Tagged date : UTC 2015-05-10 05:42:13
Cover : Yes
ContentRating : mpaa|PG-13|300|
LongDeion : Юпитер Джонс родилась под ночным небом, и все знаки предсказывали, что девочке предстоят великие свершения. Юпитер выросла и каждый день видит во сне звезды, но просыпается в жесткой реальности, где она работает уборщицей и моет туалеты. Личная жизнь Юпитер тоже оставляет желать лучшего, пока девушка не встречает Кейна. Кейн, бывший военный охотник, прибывает на Землю, чтобы отыскать Юпитер и раскрыть девушке ее истинное предназначение. Благодаря своим генетическим особенностям Юпитер становится претенденткой невероятного наследия, способного изменить равновесие во Вселенной.
HDVideo : Yes
Video
ID : 1
Format : AVC
Format/Info : Advanced Video Codec
Format profile : High@L4.1
Format settings, CABAC : Yes
Format settings, ReFrames : 11 frames
Codec ID : avc1
Codec ID/Info : Advanced Video Coding
Duration : 2h 7mn
Bit rate : 1 778 Kbps
Maximum bit rate : 12.5 Mbps
Width : 1 280 pixels
Height : 528 pixels
Display aspect ratio : 2.40:1
Frame rate mode : Constant
Frame rate : 23.976 fps
Color space : YUV
Chroma subsampling : 4:2:0
Bit depth : 8 bits
Scan type : Progressive
Bits/(Pixel*Frame) : 0.110
Stream size : 1.58 GiB (92%)
Writing library : x264 core 146 r2538 121396c
Encoding settings : cabac=1 / ref=11 / deblock=1:-1:-1 / analyse=0x3:0x133 / me=umh / subme=9 / psy=1 / psy_rd=1.00:0.20 / mixed_ref=1 / me_range=24 / chroma_me=1 / trellis=2 / 8x8dct=1 / cqm=0 / deadzone=21,11 / fast_pskip=1 / chroma_qp_offset=-3 / threads=3 / lookahead_threads=1 / sliced_threads=0 / nr=0 / decimate=1 / interlaced=0 / bluray_compat=0 / constrained_intra=0 / bframes=6 / b_pyramid=2 / b_adapt=2 / b_bias=0 / direct=3 / weightb=1 / open_gop=0 / weightp=2 / keyint=240 / keyint_min=23 / scenecut=40 / intra_refresh=0 / rc_lookahead=60 / rc=crf / mbtree=1 / crf=21.0 / qcomp=0.60 / qpmin=0 / qpmax=69 / qpstep=4 / ip_ratio=1.40 / aq=1:1.50
Encoded date : UTC 2015-05-10 02:59:11
Tagged date : UTC 2015-05-10 05:28:53
Audio
ID : 2
Format : AAC
Format/Info : Advanced Audio Codec
Format profile : LC
Codec ID : 40
Duration : 2h 7mn
Bit rate mode : Variable
Bit rate : 149 Kbps
Maximum bit rate : 212 Kbps
Channel count : 2 channels
Channel positions : Front: L R
Sampling rate : 44.1 KHz
Compression mode : Lossy
Stream size : 136 MiB (8%)
Language : Russian
Encoded date : UTC 2015-05-10 05:28:42
Tagged date : UTC 2015-05-10 05:28:53

Скриншоты

[Торрент-статистика]
[Профиль]  [ЛС] 
Показать сообщения:    
Ответить на тему

Текущее время: Сегодня 12:36

Часовой пояс: GMT + 4



Вы не можете начинать темы
Вы не можете отвечать на сообщения
Вы не можете редактировать свои сообщения
Вы не можете удалять свои сообщения
Вы не можете голосовать в опросах
Вы не можете прикреплять файлы к сообщениям
Вы не можете скачивать файлы