Рухнувшие небеса / Сошедшие с небес / Falling Skies / Сезон: 5 / Серии: 1-10 из 10 (Грег Биман, Холли Дэйл, Серджо Мимика-Геззан) [2015 г., фантастика, боевик, триллер, WEB-DLRip] (LostFilm)

Ответить на тему
 
Автор
Сообщение

3232fox ®

Пол:

Стаж: 5 лет 4 месяца

Сообщений: 613

Репутация: 423 [+] [-]

Откуда: Крым,Россия

Пост 02-Июл-2015 12:06

[Цитировать] 

-Рухнувшие небеса / Сошедшие с небес / Falling Skies-Год выпуска: 2015
Страна: США, Канада
Жанр: фантастика, боевик, триллер
Продолжительность: ~00:45
Перевод: Профессиональный (многоголосый, закадровый)- LostFilm-Режиссер: Грег Биман, Холли Дэйл, Серджо Мимика-Геззан-В ролях: Ноа Уайли, Мун Бладгуд, Дрю Рой, Коннор Джессап, Максим Найт, Сейшелл Гэбриел, Уилл Пэттон, Сара Картер, Колин Каннингэм, Питер Шинкода-Описание: Наши дни. Инопланетяне вторглись на территорию Земли. Цель их визита неизвестна, но ясно одно – они не хотят мира и уничтожают всё живое на планете, забирая только детей. Выжившие люди разбились на отряды, которые каждый день борются за свою жизнь. Перед ними стоит цель – связаться с другими выжившими из других городов и атаковать сошедших с небес инопланетных захватчиков.- -Тип релиза: WEB-DLRip
Контейнер: AVI
Видео кодек: XviD
Аудио кодек: MP3 (MPEG1 Layer 3)
Видео:(16:9) XviD, 1600 kb/s, 720x400,23.976 fps, 0.218 bit/pixel
Аудио: МР3, 192 kb/s (2 ch)- -

Скриншоты

MI

General
Complete name : E:\Видео\Falling.Skies (S05) LostFilm\Falling.Skies.S05E01.rus.LostFilm.TV.avi
Format : AVI
Format/Info : Audio Video Interleave
File size : 524 MiB
Duration : 41mn 14s
Overall bit rate mode : Variable
Overall bit rate : 1 777 Kbps
Writing application : Nandub v1.0rc2
Writing library : Nandub build 1853/release
Video
ID : 0
Format : MPEG-4 Visual
Format profile : Advanced Simple@L5
Format settings, BVOP : No
Format settings, QPel : No
Format settings, GMC : No warppoints
Format settings, Matrix : Default (H.263)
Codec ID : XVID
Codec ID/Hint : XviD
Duration : 41mn 14s
Bit rate : 1 506 Kbps
Width : 720 pixels
Height : 400 pixels
Display aspect ratio : 16:9
Frame rate : 23.976 fps
Color space : YUV
Chroma subsampling : 4:2:0
Bit depth : 8 bits
Scan type : Progressive
Compression mode : Lossy
Bits/(Pixel*Frame) : 0.218
Stream size : 444 MiB (85%)
Writing library : XviD 1.2.1 (UTC 2008-12-04)
Audio
ID : 1
Format : MPEG Audio
Format version : Version 1
Format profile : Layer 3
Mode : Joint stereo
Mode extension : MS Stereo
Codec ID : 55
Codec ID/Hint : MP3
Duration : 41mn 14s
Bit rate mode : Variable
Bit rate : 192 Kbps
Channel(s) : 2 channels
Sampling rate : 48.0 KHz
Compression mode : Lossy
Stream size : 56.6 MiB (11%)
Alignment : Aligned on interleaves
Writing library : LAME3.97b
Encoding settings : -m j -V 4 -q 3 -lowpass 18.6 --abr 192


Последний раз редактировалось: 3232fox (2015-09-05 00:01), всего редактировалось 8 раз(а)
[Торрент-статистика]
[Профиль]  [ЛС] 

3232fox ®

Пол:

Стаж: 5 лет 4 месяца

Сообщений: 613

Репутация: 423 [+] [-]

Откуда: Крым,Россия

Пост 11-Июл-2015 23:06 (спустя 9 дней)

[Цитировать] 

Конец.
[Торрент-статистика]
[Профиль]  [ЛС] 
Показать сообщения:    
Ответить на тему

Текущее время: Сегодня 15:00

Часовой пояс: GMT + 4



Вы не можете начинать темы
Вы не можете отвечать на сообщения
Вы не можете редактировать свои сообщения
Вы не можете удалять свои сообщения
Вы не можете голосовать в опросах
Вы не можете прикреплять файлы к сообщениям
Вы не можете скачивать файлы